<?xml version="1.0" standalone="no"?>
<!DOCTYPE svg PUBLIC "-//W3C//DTD SVG 1.1//EN" "http://www.w3.org/Graphics/SVG/1.1/DTD/svg11.dtd" >
<svg xmlns="http://www.w3.org/2000/svg" xmlns:xlink="http://www.w3.org/1999/xlink" version="1.1">
<metadata>
Created by FontForge 20170812 at Wed Nov  2 15:59:03 2022
 By www-data
</metadata>
<defs>
<font id="OurChristmasRegular" horiz-adv-x="0" >
  <font-face 
    font-family="Our Christmas"
    font-weight="400"
    font-stretch="normal"
    units-per-em="1000"
    panose-1="0 0 0 0 0 0 0 0 0 0"
    ascent="800"
    descent="-200"
    x-height="697.79"
    cap-height="693.125"
    bbox="-44 -279.324 933.468 1052.23"
    underline-thickness="50"
    underline-position="-100"
    unicode-range="U+000A-20AC"
  />
<missing-glyph horiz-adv-x="527" 
d="M50 700h427v-700h-427v700zM78 680l185 -309l186 309h-371zM251 350l-180 300v-601zM264 329l-185 -308h370zM276 350l181 -303v605z" />
    <glyph glyph-name=".notdef" horiz-adv-x="527" 
d="M50 700h427v-700h-427v700zM78 680l185 -309l186 309h-371zM251 350l-180 300v-601zM264 329l-185 -308h370zM276 350l181 -303v605z" />
    <glyph glyph-name=".null" 
 />
    <glyph glyph-name=".null" 
 />
    <glyph glyph-name="LF" unicode="&#xa;" 
 />
    <glyph glyph-name="controlCR" unicode="&#xd;" 
 />
    <glyph glyph-name="space" unicode=" " horiz-adv-x="228" 
 />
    <glyph glyph-name="exclam" unicode="!" horiz-adv-x="218" 
d="M59.7002 190.462l1.18164 51.5352c3.56445 155.77 0.888672 313.542 -7.95703 468.934l-2.92578 51.4619l102.919 5.85645l2.93066 -51.4619c8.99805 -158.116 11.7178 -318.652 8.08984 -477.151l-1.17773 -51.5303zM167.212 78.4316
c1.68848 -28.1338 1.46777 -56.6572 -0.65332 -84.7764l-3.88281 -51.4033l-102.796 7.76172l3.87793 51.3984c1.77246 23.5 1.95898 47.334 0.544922 70.8438l-3.08789 51.4473l102.904 6.18066z" />
    <glyph glyph-name="quotedbl" unicode="&#x22;" horiz-adv-x="343" 
d="M59.5449 761.977l7.25977 51.0312l102.064 -14.5312l-7.26562 -51.0352c-6.62207 -46.4941 -9.40039 -94.3281 -8.26172 -142.167l1.22754 -51.5303l-103.061 -2.4541l-1.22754 51.5303c-1.27148 53.5088 1.84082 107.057 9.26367 159.156zM292.823 798.477
l-7.27148 -51.0332c-6.62207 -46.4941 -9.40039 -94.3281 -8.26172 -142.167l1.22754 -51.5303l-103.061 -2.4541l-1.22754 51.5303c-1.27148 53.5088 1.84082 107.057 9.26367 159.156l7.26562 51.0293z" />
    <glyph glyph-name="quotedbl" unicode="&#x201d;" horiz-adv-x="343" 
d="M59.5449 761.977l7.25977 51.0312l102.064 -14.5312l-7.26562 -51.0352c-6.62207 -46.4941 -9.40039 -94.3281 -8.26172 -142.167l1.22754 -51.5303l-103.061 -2.4541l-1.22754 51.5303c-1.27148 53.5088 1.84082 107.057 9.26367 159.156zM292.823 798.477
l-7.27148 -51.0332c-6.62207 -46.4941 -9.40039 -94.3281 -8.26172 -142.167l1.22754 -51.5303l-103.061 -2.4541l-1.22754 51.5303c-1.27148 53.5088 1.84082 107.057 9.26367 159.156l7.26562 51.0293z" />
    <glyph glyph-name="quotedbl" unicode="&#x201c;" horiz-adv-x="343" 
d="M59.5449 761.977l7.25977 51.0312l102.064 -14.5312l-7.26562 -51.0352c-6.62207 -46.4941 -9.40039 -94.3281 -8.26172 -142.167l1.22754 -51.5303l-103.061 -2.4541l-1.22754 51.5303c-1.27148 53.5088 1.84082 107.057 9.26367 159.156zM292.823 798.477
l-7.27148 -51.0332c-6.62207 -46.4941 -9.40039 -94.3281 -8.26172 -142.167l1.22754 -51.5303l-103.061 -2.4541l-1.22754 51.5303c-1.27148 53.5088 1.84082 107.057 9.26367 159.156l7.26562 51.0293z" />
    <glyph glyph-name="numbersign" unicode="#" horiz-adv-x="567" 
d="M461.631 371.887c-18.2031 0.770508 -36.1768 1.35352 -54.0557 1.84473c-0.608398 -6.46484 -1.24707 -12.9248 -1.8457 -19.3945c15.0811 -0.461914 30.2549 -1.01172 45.5566 -1.66016l51.501 -2.17969l-4.36914 -102.997l-51.501 2.18457
c-16.8574 0.716797 -33.5186 1.27637 -50.1064 1.75293c-5.60645 -69.1934 -10.4668 -138.46 -14.4678 -207.564l-2.97461 -51.457l-102.919 5.95508l2.97461 51.457c3.91211 67.5928 8.65918 135.338 14.0889 203.029
c-9.43555 -0.00976562 -18.8906 -0.0537109 -28.3311 -0.141602c-5.65039 -69.6201 -10.5449 -139.314 -14.5703 -208.842l-2.97461 -51.457l-102.919 5.95508l2.97461 51.457c3.8584 66.6992 8.53711 133.551 13.8779 200.349
c-18.0361 -0.707031 -36.165 -1.50684 -54.5596 -2.49316l-51.4717 -2.76855l-5.53711 102.943l51.4717 2.76367c23.2734 1.25195 46.1592 2.21875 68.8984 3.0332c0.564453 6.19531 1.1875 12.3809 1.7666 18.5713c-16.6709 -0.672852 -33.4307 -1.42871 -50.4062 -2.34668
l-51.4717 -2.76855l-5.54199 102.943l51.4717 2.76367c22.3604 1.20312 44.3525 2.13574 66.2178 2.93555c6.1416 58.541 12.7637 116.886 19.9951 174.842l6.38184 51.1475l102.295 -12.7637l-6.38184 -51.1475c-6.60742 -52.9736 -12.7188 -106.267 -18.4082 -159.741
c9.36133 0.0683594 18.7275 0.0585938 28.0889 0.0537109c6.07227 57.7402 12.6162 115.279 19.749 172.445l6.38184 51.1523l102.295 -12.7686l-6.38184 -51.1475c-6.67188 -53.46 -12.833 -107.249 -18.5664 -161.229
c15.9346 -0.476562 31.9531 -1.03125 48.1338 -1.71875l51.501 -2.17969l-4.36426 -102.997zM302.31 355.956c0.583984 6.37207 1.22266 12.7354 1.82129 19.1123c-9.38574 -0.0244141 -18.792 -0.0878906 -28.1875 -0.191406
c-0.598633 -6.31836 -1.22168 -12.627 -1.80566 -18.9453c9.39062 0.0634766 18.7812 0.0390625 28.1719 0.0244141z" />
    <glyph glyph-name="dollar" unicode="$" horiz-adv-x="454" 
d="M383.233 300.352c28.0752 -62.6104 27.8604 -134.369 -0.568359 -187.279c-24.334 -45.291 -69.7285 -76.4834 -120.498 -84.7598c0.235352 -15.4492 0.485352 -30.9375 0.75 -46.5088l0.544922 -31.9043l-63.8076 -1.09473l-0.544922 31.9043
c-0.280273 16.5928 -0.549805 33.1016 -0.799805 49.5566c-47.7852 10.957 -90.1309 42.5566 -113.002 86.1543l-23.9463 45.6445l91.2891 47.8975l23.9463 -45.6445c4.63379 -8.83105 11.752 -16.5674 20.2295 -22.5176
c-0.834961 73.8027 -1.34082 146.673 -1.53711 219.366c-5.14453 3.92188 -10.333 7.84961 -15.7031 11.8896c-23.7939 17.9082 -48.3984 36.4199 -71.7119 58.8105c-14.1377 13.5879 -31.9531 32.4727 -44.3291 58.1768c-12.8965 26.7842 -16.75 58.2959 -10.8447 88.7227
c16.3174 84.0283 81.6133 124.778 144.115 137.399c0.235352 21.2021 0.490234 42.458 0.775391 63.8564l0.426758 31.9092l63.8135 -0.859375l-0.426758 -31.9043c-0.275391 -20.4365 -0.520508 -40.7451 -0.746094 -61
c61.5107 -12.4395 117.548 -71.7803 124.642 -137.896l5.49805 -51.251l-102.501 -10.9961l-5.49805 51.251c-1.53125 14.2998 -11.8945 28.3984 -23.1514 37.6279c-0.387695 -55.1875 -0.598633 -109.987 -0.62793 -164.694
c7.32422 -5.59668 14.6826 -11.3105 22.002 -17.2607c31.2998 -25.4434 75.9482 -66.0361 102.212 -124.597zM195.276 491.812c0.0986328 38.8604 0.290039 77.8242 0.56543 116.979c-18.4434 -7.73145 -36.6123 -22.2373 -41.9385 -49.6641
c-1.6543 -8.52734 -0.707031 -17.6387 2.52832 -24.3643c4.13867 -8.59082 10.9717 -17.123 22.8564 -28.542c5.1543 -4.95312 10.5146 -9.71973 15.9883 -14.4082zM291.853 161.865c13.2051 24.5801 12.1289 63.2822 -2.68652 96.3008
c-7.06445 15.7578 -16.7646 30.6865 -29.8379 45.7471c0.280273 -56.209 0.742188 -112.624 1.40039 -169.633c11.998 4.88477 23.6133 13.6035 31.124 27.585z" />
    <glyph glyph-name="percent" unicode="%" horiz-adv-x="723" 
d="M513.005 685.527l-15.1836 -49.2637c-24.6387 -79.9492 -44.9971 -152.48 -66.5479 -229.273c-32.6064 -116.173 -66.3223 -236.298 -116.287 -385.264l-16.3916 -48.8701l-97.7393 32.7881l16.3916 48.8652c49.1494 146.521 82.5068 265.39 114.77 380.341
c20.7803 74.0332 42.2627 150.585 67.2891 231.786l15.1787 49.2578zM263.619 340.242c-8.26172 -17.1084 -18.0508 -31.1123 -29.0908 -41.6133c-17.5791 -16.7207 -39.5615 -25.5322 -62.0889 -25.5322c-9.44043 0 -18.9736 1.54102 -28.3203 4.69727
c-26.6318 8.99316 -49.4199 29.6992 -65.8994 59.8799c-14.1875 25.9834 -23.5732 58.8691 -26.4307 92.5996c-11.6152 137.268 34.4121 247.191 107.062 255.704c25.9541 3.00391 50.4795 -4.5459 70.9551 -21.9189c52.8066 -44.8145 59.998 -143.517 60.9014 -162.849
c2.5625 -54.7656 -4.90918 -107.057 -21.0449 -147.247c-1.91992 -4.78125 -3.95215 -9.38574 -6.04297 -13.7207c0.00488281 0.00488281 0 0.00488281 0 0zM173.999 392.389c10.4268 25.9736 15.5615 64.8594 13.7354 103.999
c-1.47754 31.4473 -9.00293 59.9053 -16.3467 76.1152c-10.5596 -21.9482 -22.5332 -66.6992 -16.8779 -133.531c1.64941 -19.4844 6.82324 -38.3994 14.1914 -51.8945c0.564453 -1.03125 1.11914 -1.98828 1.65918 -2.87207
c0.137695 0.285156 0.280273 0.570312 0.422852 0.870117c1.08496 2.24316 2.16504 4.70215 3.21582 7.31348zM672.795 234.632c2.5625 -54.7656 -4.90918 -107.056 -21.0449 -147.241c-1.92969 -4.80078 -3.9668 -9.41504 -6.05762 -13.7451
c-8.25195 -17.0938 -18.0361 -31.0801 -29.0713 -41.5859c-17.584 -16.7256 -39.5664 -25.5371 -62.0986 -25.5371c-9.43555 0 -18.9688 1.54102 -28.3154 4.69727c-26.6318 8.98828 -49.4199 29.6943 -65.8994 59.8701c-14.1924 26.0029 -23.5732 58.8887 -26.4307 92.6094
c-11.6201 137.268 34.4072 247.196 107.062 255.704c25.9639 3.01953 50.4844 -4.54492 70.9551 -21.9229c52.8066 -44.8145 59.998 -143.517 60.9014 -162.849zM556.092 125.809c10.4219 25.9688 15.5566 64.8594 13.7305 103.999
c-1.47266 31.4473 -8.99805 59.9053 -16.3418 76.1152c-10.5596 -21.9482 -22.5332 -66.6943 -16.8779 -133.526c1.6543 -19.4844 6.82812 -38.4043 14.1963 -51.9092c0.55957 -1.02637 1.11426 -1.97852 1.6543 -2.8623
c0.142578 0.285156 0.285156 0.575195 0.427734 0.870117c0 0.00976562 0.00488281 0.0195312 0.00976562 0.0292969c1.07031 2.22363 2.15039 4.67285 3.20117 7.28418z" />
    <glyph glyph-name="ampersand" unicode="&#x26;" horiz-adv-x="472" 
d="M352.724 125.216c6.12207 -4.91406 12.332 -9.42578 18.6104 -13.5146l43.1855 -28.1436l-56.2871 -86.3652l-43.1797 28.1387c-7.63867 4.97754 -15.1738 10.3682 -22.5869 16.166c-36.209 -38.1777 -74.8779 -59.1641 -115.294 -62.4971
c-3.59375 -0.294922 -7.14258 -0.442383 -10.6572 -0.442383c-27.2549 0 -52.1484 8.85059 -72.5117 25.9092c-25.4932 21.3398 -41.8701 55.2861 -43.7949 90.793c-1.84082 33.7598 8.59082 67.7988 31.8848 104.058c16.7939 26.1357 35.1885 48.2998 52.9785 69.7324
c0.0683594 0.078125 0.131836 0.15625 0.195312 0.234375c-25.8164 66.7236 -52.9736 167.57 -38.4326 273.602c5.62109 40.9854 23.2197 114.783 77.9707 148.558c50.2539 31.001 114.528 14.1777 149.48 -39.1494c33.4551 -51.04 32.3896 -119.075 28.7764 -155.083
c-8.2959 -82.7227 -41.3975 -164.39 -98.4902 -243.141c7.9082 -15.7529 16.3271 -30.6377 25.1836 -44.5547c12.9307 29.0713 23.1904 60.7002 30.4414 94.0674l10.9424 50.3721l100.739 -21.875l-10.9424 -50.377c-12.3164 -56.7393 -32.1348 -109.826 -58.2119 -156.487z
M168.697 81.7412c14.6777 1.20801 32.8867 13.1719 51.5508 33.5146c-12.3418 15.9941 -24.0889 33.2197 -35.1445 51.5645c-5.7041 -7.56445 -11.1582 -15.2422 -16.2832 -23.2246c-11.168 -17.3877 -16.2979 -31.374 -15.6797 -42.748
c0.496094 -9.0625 4.95312 -15.6016 7.03418 -17.3398c0.741211 -0.618164 2.66113 -2.2627 8.52246 -1.7666zM250.488 507.505c3.7207 37.0879 -1.04102 70.9121 -12.4297 88.2852c-4.24121 6.46973 -8.33496 8.01074 -9.12012 8.0498
c-8.66895 -5.46875 -23.7842 -29.7979 -29.9795 -74.9512c-7.39355 -53.9658 -0.800781 -107.308 10.5244 -153.222c23.0088 43.6514 36.5381 87.2881 41.0049 131.838z" />
    <glyph glyph-name="quotesingle" unicode="'" horiz-adv-x="219" 
d="M168.87 798.475l-7.27148 -51.0332c-6.62207 -46.4941 -9.40039 -94.3281 -8.26172 -142.167l1.22754 -51.5303l-103.061 -2.4541l-1.22754 51.5303c-1.27148 53.5088 1.84082 107.057 9.26367 159.156l7.26562 51.0293z" />
    <glyph glyph-name="quotesingle" unicode="&#x2019;" horiz-adv-x="219" 
d="M168.87 798.475l-7.27148 -51.0332c-6.62207 -46.4941 -9.40039 -94.3281 -8.26172 -142.167l1.22754 -51.5303l-103.061 -2.4541l-1.22754 51.5303c-1.27148 53.5088 1.84082 107.057 9.26367 159.156l7.26562 51.0293z" />
    <glyph glyph-name="quotesingle" unicode="&#x2018;" horiz-adv-x="219" 
d="M168.87 798.475l-7.27148 -51.0332c-6.62207 -46.4941 -9.40039 -94.3281 -8.26172 -142.167l1.22754 -51.5303l-103.061 -2.4541l-1.22754 51.5303c-1.27148 53.5088 1.84082 107.057 9.26367 159.156l7.26562 51.0293z" />
    <glyph glyph-name="parenleft" unicode="(" horiz-adv-x="350" 
d="M258.511 -61.2598l41.2139 -30.9648l-61.9131 -82.4229l-41.2168 30.957c-49.5771 37.2451 -80.293 98.3037 -97.3369 142.977c-19.627 51.457 -33.7354 113.169 -41.9238 183.433c-21.4531 184.154 4.82031 378.563 70.2783 520.043
c17.6436 38.1436 34.1279 63.4648 53.46 82.0996l37.1074 35.7773l71.5547 -74.21l-37.1074 -35.7773c-14.0449 -13.5439 -27.1426 -41.8643 -31.4482 -51.1719c-57.8242 -124.975 -80.7939 -298.741 -61.4473 -464.825c7.20117 -61.7754 19.2578 -115.151 35.8457 -158.626
c17.2402 -45.208 39.5957 -79.7627 62.9336 -97.2881z" />
    <glyph glyph-name="parenright" unicode=")" horiz-adv-x="350" 
d="M222.117 702.758c65.4521 -141.47 91.7285 -335.871 70.2754 -520.025c-8.18848 -70.2637 -22.2969 -131.98 -41.9238 -183.438c-17.0439 -44.668 -47.7549 -105.727 -97.332 -142.972l-41.2119 -30.9668l-61.9229 82.4229l41.2168 30.9619
c23.333 17.5303 45.6836 52.085 62.9287 97.293c16.5879 43.4746 28.6445 96.8457 35.8457 158.626c19.3467 166.084 -3.62305 339.851 -61.4424 464.815c-4.31055 9.3125 -17.4082 37.6328 -31.4531 51.1768l-37.1074 35.7773l71.5547 74.21l37.1074 -35.7773
c19.332 -18.6348 35.8164 -43.9561 53.4648 -82.1045z" />
    <glyph glyph-name="asterisk" unicode="*" horiz-adv-x="409" 
d="M278.1 498.929c8.25195 -19.3174 16.6963 -38.6396 25.4248 -58.1191l21.084 -47.0342l-94.0723 -42.1689l-21.084 47.0342c-2.63574 5.88086 -5.18848 11.7178 -7.78027 17.5742c-2.50391 -5.11035 -4.96777 -10.2061 -7.51074 -15.3359l-22.8955 -46.1797
l-92.3594 45.792l22.8955 46.1797c8.07031 16.2734 15.8857 32.4443 23.5879 48.6055c-7.93262 0.254883 -15.8457 0.490234 -23.9014 0.87793l-51.4863 2.48438l4.97754 102.973l51.4863 -2.48926c6.89258 -0.333984 13.7012 -0.583984 20.4951 -0.80957
c-7.89355 20.8242 -15.7188 41.958 -23.5244 63.6367l-17.4668 48.4971l96.9932 34.9277l17.4619 -48.4971c2.06641 -5.74316 4.14258 -11.3496 6.21387 -17.0244c2.01758 4.95312 4.03516 9.84277 6.04785 14.8545l19.2236 47.8242l95.6484 -38.4482l-19.2236 -47.8242
c-7.26074 -18.0654 -14.5312 -35.6836 -21.8311 -53.1055c3.67676 0.34375 7.32422 0.648438 11.0254 1.02637l51.2803 5.22852l10.4609 -102.565l-51.2803 -5.22852c-10.0586 -1.02637 -19.9893 -1.88086 -29.8906 -2.68555z" />
    <glyph glyph-name="plus" unicode="+" horiz-adv-x="363" 
d="M310.048 331.058l2.88867 -103.045l-51.5254 -1.44336c-10.2695 -0.290039 -19.4541 -0.476562 -27.957 -0.609375c-0.0195312 -38.8311 -0.407227 -77.8779 -1.20703 -117.838l-1.03613 -51.5352l-103.071 2.07129l1.03125 51.5352
c0.785156 39.0566 1.16309 77.2246 1.1875 115.182c-7.45215 -0.186523 -15.4834 -0.446289 -24.4766 -0.829102l-51.501 -2.18945l-4.37891 102.997l51.501 2.18457c10.2988 0.431641 19.4932 0.731445 27.9756 0.932617
c-0.682617 38.7373 -1.74316 77.7939 -3.24023 117.887l-1.91992 51.5107l103.017 3.83887l1.91992 -51.5059c1.53613 -41.2119 2.62598 -81.3486 3.32324 -121.161c7.86914 0.12793 16.416 0.30957 25.9443 0.579102z" />
    <glyph glyph-name="comma" unicode="," horiz-adv-x="278" 
d="M228.386 94.9209l-79.4287 -272.008l-98.9561 28.8965l79.4287 272.008z" />
    <glyph glyph-name="hyphen" unicode="-" horiz-adv-x="360" 
d="M258.086 404.63l51.5254 -1.57031l-3.13672 -103.041l-51.5205 1.56641c-50.1904 1.52637 -96.0068 1.10449 -148.598 -1.38965l-51.4863 -2.43457l-4.87012 102.978l51.4863 2.43457c55.3545 2.61621 103.66 3.05762 156.6 1.45703z" />
    <glyph glyph-name="period" unicode="." horiz-adv-x="217" 
d="M64.9482 78.1816l102.108 -14.251l-7.12305 -51.0498c-2.13574 -15.2676 -3.61328 -31.001 -4.39844 -46.7588l-2.57227 -51.4814l-102.963 5.14453l2.56738 51.4766c0.9375 18.792 2.70508 37.5889 5.25781 55.8701z" />
    <glyph glyph-name="slash" unicode="/" horiz-adv-x="334" 
d="M182.285 718.904l101.551 -17.7812l-8.89062 -50.7695c-9.3418 -53.3662 -17.7119 -102.069 -25.7822 -148.995c-25.6943 -149.467 -47.8887 -278.546 -88.0156 -481.045l-10.0195 -50.5635l-101.127 20.0391l10.0195 50.5635
c39.876 201.213 61.9619 329.698 87.5381 478.473c8.08496 47.0244 16.4746 95.8301 25.8359 149.305z" />
    <glyph glyph-name="zero" unicode="0" horiz-adv-x="409" 
d="M286.08 654.491c86.2373 -73.1846 96.9951 -251.788 97.9375 -271.91c4.42773 -94.5391 -8.7334 -187.851 -36.1016 -256.027c-3.17578 -7.9082 -6.55371 -15.5811 -10.0439 -22.8125c-13.0684 -27.0684 -28.1641 -48.8447 -44.8545 -64.7207
c-24.5107 -23.3184 -54.0977 -35.4531 -84.7158 -35.4531c-12.8965 0 -25.9795 2.15039 -38.9443 6.52441c-38.8652 13.1172 -72.7773 44.5205 -98.0537 90.8232c-23.5635 43.165 -39.1992 98.2695 -44.0146 155.161c-11.8408 139.835 10.54 235.92 31.3936 291.903
c30.1953 81.0684 77.249 131.043 129.089 137.11c35.7969 4.19238 69.7871 -6.3916 98.3086 -30.5986zM252.249 164.957c22.0615 54.9375 32.5576 132.5 28.7969 212.793c-3.49512 74.6377 -27.5156 169.157 -61.6631 198.136
c-7.42773 6.29785 -12.9111 7.39746 -18.6943 6.90137c-6.01367 -2.66602 -29.0859 -22.2529 -48.7324 -80.1846c-15.3604 -45.291 -31.6338 -123.32 -21.9434 -237.839c3.58398 -42.3115 15.1641 -84.0342 31.7764 -114.461
c12.0957 -22.1543 27.2451 -38.0547 40.5293 -42.5371c5.00684 -1.70312 10.6426 -2.62598 19.6504 5.94043c7.44727 7.08398 15.6357 19.46 23.0684 34.8496c2.47949 5.12988 4.9043 10.6475 7.21191 16.4014z" />
    <glyph glyph-name="one" unicode="1" horiz-adv-x="361" 
d="M328.723 639.141c-3.27441 -199.844 -2.83789 -386.835 1.36426 -588.465l1.0752 -51.5352l-103.071 -2.15039l-1.0752 51.5352c-3.65234 175.053 -4.47168 339.158 -2.5127 510.043c-21.3252 -14.4766 -45.5225 -30.082 -77.8535 -49.0654l-44.4463 -26.1016
l-52.2031 88.8936l44.4463 26.0967c43.9609 25.8164 71.9668 45.0693 99.1045 64.1357l32.8271 23.0625l0.113281 6.7793l103.076 -1.69336z" />
    <glyph glyph-name="two" unicode="2" horiz-adv-x="346" 
d="M158.479 694.682c66.2041 10.8145 129.43 -27.6592 153.788 -93.6465c17.3877 -47.1318 9.35156 -99.2812 3.01367 -126.173c-8.93945 -37.9424 -22.2383 -75.8457 -41.8496 -119.301c-21.8213 -48.3545 -44.2754 -84.667 -65.9932 -119.781
c-23.9561 -38.7373 -46.5869 -75.334 -66.8955 -126.384l-3.86328 -9.70996c40.3672 0.157227 91.3232 0.750977 118.073 2.59668l51.4229 3.55371l7.10352 -102.845l-51.4229 -3.54883c-36.1113 -2.49902 -108.132 -2.90137 -150.802 -2.90137
c-18.9492 0 -32.1104 0.0830078 -33.7646 0.0927734l-51.5449 0.324219l0.648438 102.364l-0.702148 0.280273l19.0518 47.8926c23.6572 59.4688 49.7637 101.682 75.0107 142.506c20.8975 33.7988 40.6416 65.7178 59.7031 107.96
c16.8232 37.2646 28.0947 69.208 35.4727 100.538c6.16602 26.1699 6.39648 51.1621 0.608398 66.8467c-8.23242 22.2969 -26.2246 29.9697 -40.3779 27.6035c-20.373 -3.34277 -44.8203 -30.2295 -46.6562 -95l-1.45801 -51.5254l-103.046 2.91602l1.45801 51.5254
c3.60352 127.405 71.0791 183.658 133.021 193.815z" />
    <glyph glyph-name="three" unicode="3" horiz-adv-x="344" 
d="M317.166 558.376c6.44043 -58.7617 -18.0068 -109.431 -33.1416 -134.413c-10.5254 -17.3633 -21.7627 -34.6035 -34.9678 -50.0479c14.2412 -14.5654 27.0537 -32.2139 37.8682 -52.6357c11.9785 -22.6211 20.2402 -46.1797 24.5654 -70.0234
c8.08496 -44.5596 3.21484 -95.6729 -13.3535 -140.237c-24.5547 -66.0225 -70.6904 -108.53 -123.414 -113.714c-3.57422 -0.353516 -7.14355 -0.525391 -10.6973 -0.525391c-50.5195 -0.00488281 -98.0439 35.085 -125.938 93.8857l-22.0908 46.5674l93.1396 44.1865
l22.0908 -46.5723c12.96 -27.3242 28.2666 -35.4639 33.4111 -34.9434c6.29297 0.618164 24.3242 13.3232 36.8672 47.0488c10 26.8965 13.2744 59.8213 8.54199 85.9082c-2.43457 13.416 -7.2207 26.9355 -14.2354 40.1807
c-17.0342 32.1689 -38.1533 45.8555 -51.54 45.124l-50.0039 -4.76172l-0.147461 1.5459l-1.55078 -0.103516l-3.26465 50.6562l-4.81055 50.5244l1.5459 0.147461l-0.0986328 1.55176l50.2246 3.23535c21.2764 2.15527 34.1924 14.3887 59.7051 56.4541
c14.2412 23.4902 21.1045 48.9043 18.8213 69.7139c-2.70508 24.6582 -17.4814 37.1221 -23.7109 41.3291c-8.87109 6.00391 -18.252 7.74707 -27.874 5.16992c-12.4004 -3.30859 -23.7451 -13.3721 -30.3477 -26.9062l-22.5967 -46.332l-92.6582 45.1875l22.5967 46.332
c19.7979 40.5928 54.9268 70.2285 96.3838 81.3135c38.6543 10.334 78.5107 3.44629 112.251 -19.3711c38.2764 -25.8906 63.2148 -67.9756 68.4287 -115.476z" />
    <glyph glyph-name="four" unicode="4" horiz-adv-x="396" 
d="M363.9 639.141c-3.27441 -199.849 -2.84082 -386.842 1.37109 -588.472l1.0752 -51.5303l-103.071 -2.15039l-1.0752 51.5352c-0.844727 40.5439 -1.53223 80.4844 -2.07715 120.071c-38.4531 -0.770508 -88.7021 -2.22852 -120.552 -3.15137
c-26.1357 -0.755859 -34.8398 -1.00098 -37.8643 -1.00098h-51.5449v98.1523l-0.162109 0.0732422l0.162109 0.353516v4.51172h2.03711l19.0371 42.1006c12.2432 27.0781 111.515 241.384 165.033 338.652l24.8496 45.1582l1.99316 -1.09961l101.633 -1.66895z
M166.165 269.334c29.8965 0.854492 64.377 1.78125 92.874 2.34082c-0.466797 64.7363 -0.505859 129.011 -0.147461 193.791c-41.8203 -85.8643 -82.958 -174.669 -92.7266 -196.132z" />
    <glyph glyph-name="five" unicode="5" horiz-adv-x="352" 
d="M147.078 478.942c50.8477 -2.73926 110.939 -21.2783 145.058 -76.5156c46.9258 -75.9775 36.3809 -183.099 29.665 -225.626c-8.95898 -56.7539 -33.2686 -106.87 -66.6992 -137.493c-25.3311 -23.2002 -56.042 -35.1641 -86.5566 -35.1689
c-20.4854 0 -40.8828 5.39062 -59.5225 16.3818c-41.6436 24.5752 -72.4033 76.9453 -80.2822 136.679l-6.74023 51.1035l102.202 13.4805l6.74023 -51.1035c4.0791 -30.8926 18.4082 -54.2549 30.4648 -61.3682c7.05957 -4.1582 15.1592 -2.13086 24.0596 6.01367
c16.0576 14.7129 29.2822 44.4277 34.5107 77.5537c7.91309 50.1318 7.98633 117.278 -15.5479 155.378c-22.8809 37.0537 -94.5088 26.0869 -95.2207 25.9443l-50.6465 -9.57715l-18.7188 98.9424l-1.47754 0.319336l10.874 50.3867
c0.142578 0.648438 14.2266 65.8115 31.1387 134.932l12.2529 50.0674l3.91699 -0.957031h208.164v-103.091h-131.303c-13.2295 -55.6543 -23.2832 -102.153 -23.4014 -102.698z" />
    <glyph glyph-name="six" unicode="6" horiz-adv-x="321" 
d="M213.59 364.993c41.2119 -21.9043 72.0557 -73.8389 82.5068 -138.918c9.75391 -60.7002 -1.78711 -127.13 -29.3955 -169.235c-23.8682 -36.4053 -59.4736 -56.1055 -96.8223 -56.1055c-16.6807 -0.00488281 -33.7051 3.92773 -50.1895 12.0469
c-33.7744 16.6416 -61.4619 48.8848 -77.9512 90.7988c-20.4658 52.0312 -25.0459 121.671 -13.6025 206.995c16.8926 125.957 57.6182 243.004 114.671 329.6c10.3086 15.6406 24.4814 35.5762 42.7041 51.0596l39.2822 33.3721l66.7334 -78.5742l-39.2822 -33.3721
c-8.36523 -7.10352 -17.3389 -20.0781 -23.3623 -29.2139c-36.2588 -55.0352 -64.9326 -125.52 -83.3516 -203.726c23.1514 1.62012 46.4746 -3.25488 68.0596 -14.7275zM180.493 113.362c11.4082 17.4023 20.1289 57.0889 13.8203 96.3662
c-5.8418 36.3711 -20.8145 59.8369 -29.0957 64.2354c-11.4873 6.10156 -22.376 1.18262 -29.4795 -4.02148l-9.05273 -6.62695c-4.1084 -51.3145 -0.392578 -93.0664 10.9863 -121.99c10.1816 -25.876 23.6865 -34.1426 27.5791 -36.0625
c3.17578 -1.57129 7.50098 -3.70215 15.2422 8.09961z" />
    <glyph glyph-name="seven" unicode="7" horiz-adv-x="390" 
d="M288.92 684.265l51.3965 -3.85352l-7.46191 -99.5264l0.412109 -0.108398l-0.588867 -2.24805l-0.0683594 -0.917969l-0.166992 0.00976562l-12.248 -46.7002c-0.961914 -3.66699 -96.4385 -367.998 -123.797 -491.707l-11.1338 -50.3281l-100.655 22.2627
l11.1289 50.3281c27.79 125.657 120.787 480.549 124.734 495.59l6.68652 25.4883c-12.8076 -0.0292969 -26.6025 -0.152344 -40.6963 -0.275391c-27.9814 -0.235352 -56.9053 -0.485352 -84.9209 -0.170898l-51.54 0.588867l1.17773 103.081l51.5449 -0.588867
c26.9756 -0.30957 55.375 -0.0644531 82.8457 0.175781c42.6299 0.373047 79.4482 0.692383 103.351 -1.09961z" />
    <glyph glyph-name="eight" unicode="8" horiz-adv-x="362" 
d="M309.946 344.513c-4.42285 -17.0098 -8.59863 -33.0752 -11.4463 -47.2627l-3.73535 -18.6396c6.02344 -11.4082 11.5557 -23.3027 16.5781 -35.6445c7.9375 -19.5088 18.4385 -49.3906 17.9668 -83.5186c-0.329102 -23.7354 -6.02832 -48.1729 -16.4893 -70.6611
c-25.6201 -55.0703 -76.8164 -87.8486 -129.103 -87.8486c-17.0684 0 -34.25 3.49023 -50.7002 10.8389c-56.7002 25.3359 -98.2109 92.1973 -105.751 170.34c-6.46484 67.0137 12.0723 137.714 49.6562 189.932c-31.9971 41.4326 -49.2725 89.2617 -48.9629 136.354
c0.210938 31.5459 8.29102 63.8867 23.3721 93.5225c24.7217 48.5801 67.416 82.5459 114.214 90.8525c66.0957 11.7324 124.671 -20.8936 149.206 -83.1504c38.6143 -98.0098 13.5195 -194.596 -4.80566 -265.114zM219.352 132.267
c4.31055 9.26855 6.75391 19.4277 6.87207 28.5977c0.162109 11.7129 -3.13184 25.4531 -10.373 43.2383c-11.5801 28.458 -27.2549 54.2451 -45.3301 74.5732c-5.86621 6.59766 -12.1943 12.8809 -18.8457 19.1201c-17.0684 -30.5342 -25.3008 -69.4727 -21.7959 -105.78
c4.32031 -44.7461 26.5039 -77.7646 45.1924 -86.1104c15.1055 -6.76465 34.1475 4.5752 44.2803 26.3613zM213.013 381.453c15.542 60.332 30.6152 127.463 5.81934 190.383c-5.33594 13.5293 -14.29 20.1904 -27.2549 20.1904
c-2.51855 0 -5.18945 -0.25 -8.0166 -0.750977c-14.9092 -2.64648 -30.3682 -16.4805 -40.3535 -36.1016c-7.74121 -15.2129 -12.0566 -32.0557 -12.1602 -47.4453c-0.240234 -36.4248 21.5312 -66.5127 34.5303 -81.2051
c11.001 -12.4346 23.6416 -23.7402 37.0234 -35.7139c3.44629 -3.08301 6.92188 -6.19043 10.4121 -9.35645z" />
    <glyph glyph-name="nine" unicode="9" horiz-adv-x="360" 
d="M313.653 716.571l6.02832 -51.1865c14.0986 -119.648 16.7549 -234.879 8.36523 -362.628c-2.80762 -42.7578 -7.73633 -98.5449 -21.0107 -150.812c-13.8486 -54.5498 -42.4541 -124.018 -100.047 -145.176c-7.05957 -2.58691 -24.2314 -7.92773 -45.709 -7.92773
c-16.4893 0 -35.5166 3.15137 -54.4512 13.0967c-22.0371 11.5752 -51.1875 36.6309 -64.9375 90.2031l-12.8125 49.9297l99.8555 25.625l12.8125 -49.9248c3.29395 -12.8271 8.16895 -22.0166 13.0391 -24.5742c4.83008 -2.54785 13.4648 -0.825195 16.666 0.342773
c5.89551 2.90137 23.4502 25.6748 35.6641 73.7734c11.207 44.1426 15.542 93.8418 18.0605 132.201c0.790039 12.0176 1.44824 23.8926 2.03223 35.6895c-6.84863 -8.47754 -14.4287 -15.9834 -22.9062 -22.2275c-18.2471 -13.4414 -39.125 -20.334 -61.1963 -20.334
c-6.01367 0 -12.1201 0.510742 -18.2861 1.54199c-54.5596 9.11621 -88.2012 64.0684 -97.3369 114.489c-5.94043 32.7627 -5.97949 68.957 -0.113281 101.911c28.4434 159.771 126.281 183.82 155.589 187.385c14.6094 1.77246 28.9385 1.02148 42.3848 -1.80078z
M192.051 585.264c0.961914 7.08887 1.88379 13.8525 2.79199 20.2881c-3.07812 -0.421875 -6.58301 -1.32031 -10.4023 -2.97949c-26.0127 -11.3154 -46.2676 -47.7803 -55.5752 -100.057c-3.7207 -20.8877 -3.70117 -44.7461 0.0546875 -65.4619
c2.38574 -13.1416 9.6416 -26.4893 14.3203 -31.001c2.9209 2.25781 14.541 13.4951 26.4551 55.8115c10.7607 38.207 17.1914 85.4473 22.3555 123.399z" />
    <glyph glyph-name="colon" unicode=":" horiz-adv-x="235" 
d="M170.886 367.65l-3.01855 -51.4521l-102.914 6.05273l3.0293 51.4521c1.42871 24.3047 3.8877 48.6436 7.30469 72.3496l7.36328 51.0195l102.035 -14.7275l-7.36328 -51.0195c-3.01465 -20.8389 -5.1748 -42.2666 -6.43652 -63.6748zM71.458 54.2549l7.02051 51.0645
l102.133 -14.0352l-7.01953 -51.0645c-3.59375 -26.1064 -7.86914 -52.3262 -12.7148 -77.917l-9.58789 -50.6465l-101.289 19.1797l9.58789 50.6416c4.52148 23.8975 8.51758 48.3789 11.8701 72.7773z" />
    <glyph glyph-name="semicolon" unicode=";" horiz-adv-x="280" 
d="M229.605 481.902l-28.4971 -158.085l-101.451 18.2881l28.4971 158.085zM91.8545 83.3516l7.85449 50.9414l101.888 -15.6992l-7.84961 -50.9463c-9.69531 -62.9102 -20.6279 -126.168 -32.4883 -188.032l-9.70996 -50.6221l-101.245 19.4102l9.70508 50.627
c11.6299 60.6367 22.3418 122.648 31.8457 184.321z" />
    <glyph glyph-name="less" unicode="&#x3c;" horiz-adv-x="424" 
d="M244.303 278.708c27.3486 -14.4912 55.6289 -29.4834 82.4375 -44.3477l45.0801 -25.002l-50.0039 -90.1553l-45.0801 25.002c-25.9395 14.3936 -53.7783 29.1455 -80.6992 43.4111c-27.3486 14.4912 -55.6299 29.4834 -82.4336 44.3428
c-14.6436 8.125 -32.8857 18.2324 -49.9297 36.7002c-18.5322 20.0684 -18.1836 51.1035 0.780273 70.7549c66.1006 68.4912 135.098 131.887 205.091 188.415l40.1025 32.3896l64.7705 -80.1992l-40.0977 -32.3848c-51.4668 -41.5703 -102.428 -87.0869 -152.034 -135.775
c20.3779 -11.085 41.4619 -22.2578 62.0166 -33.1514z" />
    <glyph glyph-name="equal" unicode="=" horiz-adv-x="410" 
d="M96.2188 402.107l-39.1045 -3.55859l-7.1084 78.2256l39.1104 3.55371c81.9375 7.45215 153.389 8.7334 231.674 4.13867l39.2041 -2.29785l-4.59473 -78.4121l-39.2041 2.29785c-74.2354 4.34473 -142.074 3.12207 -219.977 -3.94727zM89.1113 355.658
c81.9375 7.44727 153.39 8.72852 231.68 4.13867l39.2041 -2.29785l-4.59473 -78.4121l-39.2041 2.29785c-74.2354 4.33984 -142.074 3.12207 -219.977 -3.94727l-39.1104 -3.55859l-7.1084 78.2256z" />
    <glyph glyph-name="greater" unicode="&#x3e;" horiz-adv-x="424" 
d="M359.966 339.413c18.9639 -19.6514 19.3047 -50.6875 0.783203 -70.751c-17.0488 -18.4727 -35.2861 -28.5801 -49.9346 -36.7041c-26.7939 -14.8545 -55.0752 -29.8467 -82.4238 -44.3379c-26.9258 -14.2656 -54.7646 -29.0176 -80.7041 -43.4111l-45.0801 -25.002
l-50.0039 90.1553l45.0801 25.002c26.8037 14.8594 55.085 29.8516 82.4385 44.3428c20.5547 10.8936 41.6445 22.0664 62.0176 33.1514c-49.6016 48.6787 -100.558 94.1904 -152.039 135.775l-40.0977 32.3848l64.7705 80.1992l40.1025 -32.3896
c70.0078 -56.5479 139.015 -119.938 205.091 -188.415z" />
    <glyph glyph-name="question" unicode="?" horiz-adv-x="363" 
d="M291.546 667.138c18.5566 -29.5381 21.5781 -66.7998 21.7305 -86.377c0.206055 -28.1143 -4.59961 -54.7949 -8.80664 -74.9023c-7.83496 -37.4072 -18.002 -72.8457 -27.835 -107.116c-4.875 -16.9805 -9.91211 -34.5352 -14.4922 -51.7852
c-10.9277 -41.1133 -23.4307 -95.4814 -23.1709 -151.523l0.235352 -51.5449l-103.086 -0.476562l-0.240234 51.54c-0.30957 68.1865 14.0645 131.194 26.627 178.469c4.8457 18.2324 10.0244 36.2881 15.0361 53.7549c9.75391 33.9854 18.9629 66.0811 26.0225 99.8066
c3.35254 16.0039 6.75977 34.8105 6.62207 52.999c-0.103516 14.1328 -2.53809 24.5645 -4.68848 29.7881c-10.7021 -3.1416 -34.3691 -28.0352 -44.04 -74.2441l-10.5547 -50.4502l-100.906 21.1143l10.5547 50.4502c20.4023 97.5039 86.7188 163.064 157.689 156.04
c30.7305 -3.05859 56.7686 -19.2344 73.3027 -45.542zM241.171 47.4102c1.68848 -14.8252 2.57324 -29.9609 2.6416 -44.9922l0.225586 -51.5449l-103.091 -0.451172l-0.225586 51.5449c-0.0439453 11.3057 -0.711914 22.6699 -1.97852 33.7842l-5.83203 51.2168
l102.428 11.6592z" />
    <glyph glyph-name="at" unicode="@" horiz-adv-x="567" 
d="M368.837 475.316c19.6064 -7.5498 33.2295 -26.6445 32.999 -48.6221c-0.118164 -11.1973 -0.231445 -22.5176 -0.103516 -33.7344l4.39844 -15.1006c1.88965 9.09668 3.50488 18.8115 4.83008 29.0811c5.69922 44.334 4.38867 85.7861 -3.79004 119.86
c-15.3018 63.7686 -54.1719 97.9795 -85.9092 103.605c-32.4443 5.74316 -59.7588 -11.2568 -76.96 -26.5244c-29.376 -26.0771 -54.2646 -68.7324 -70.082 -120.12c-12.6016 -40.9561 -19.8525 -89.0254 -20.9717 -139.01
c-1.0166 -45.4434 2.98926 -87.043 11.8994 -123.65c20.0146 -82.2412 64.2842 -129.029 96.9346 -137.698c34.3779 -9.13086 75.3535 19.4053 102.034 70.96l23.6865 45.7773l91.5586 -47.377l-23.6914 -45.7822c-42.1104 -81.373 -109.688 -128.52 -179.638 -128.524
c-13.4365 0 -26.9463 1.73242 -40.3975 5.30664c-78.3584 20.7949 -143.752 102.398 -170.658 212.956c-11.0352 45.3301 -16.0127 95.9131 -14.7949 150.33c1.32031 59.3457 10.1416 117.11 25.5068 167.035c21.291 69.1836 56.8672 128.456 100.175 166.889
c48.3691 42.9443 106.395 61.0146 163.369 50.9365c79.1338 -14.0156 145.151 -85.0889 168.175 -181.062c11.0703 -46.1211 13.0732 -100.43 5.79785 -157.061c-6.35742 -49.4736 -18.5225 -90.3711 -36.1611 -121.563
c-16.9121 -29.9111 -40.417 -49.7588 -66.1846 -55.8906c-20.166 -4.79102 -40.8184 -1.0752 -58.1377 10.5c-3.92773 2.62598 -7.64844 5.625 -11.1533 8.99707c-1.02148 -1.67871 -2.04785 -3.33789 -3.08887 -4.96777
c-9.72461 -15.2627 -23.5195 -34.3936 -43.9707 -46.8037c-31.3838 -19.0518 -68.418 -15.5518 -94.3232 8.92969c-19.916 18.8066 -31.9482 49.2529 -35.7725 90.4795c-4.59473 49.6211 1.38477 121.878 25.1006 171.479c31.8799 66.6846 72.4434 77.9365 100.827 75.6045
c36.3223 -2.96484 61.6582 -28.3594 78.4961 -55.2363zM266.031 313.854c10.1426 22.9893 19.0762 51.7031 26.2725 84.5107c-2.41504 6.38672 -5.02637 11.9639 -7.55469 16.6025c-0.711914 -1.37988 -1.45801 -2.86719 -2.22363 -4.47754
c-10.4951 -21.9531 -16.8574 -60.7549 -16.4941 -96.6357zM403.008 364.404l-0.229492 -0.0683594c0.0146484 -0.21582 0.0292969 -0.431641 0.0488281 -0.647461c0.0585938 0.240234 0.117188 0.475586 0.180664 0.71582z" />
    <glyph glyph-name="A" unicode="A" horiz-adv-x="401" 
d="M343.246 408.095c24.1572 -107.833 49.9736 -256.84 49.9688 -351.639v-51.5449h-103.091v51.5449c0 21.6982 -1.51172 46.7686 -4.16797 73.9307c-35.5225 0.30957 -72.998 0.186523 -112.521 0.0439453c-18.5215 -0.0732422 -37.6025 -0.131836 -56.9785 -0.161133
c-3.65723 -29.4004 -6.10156 -55.7764 -7.11328 -77.8525l-2.36133 -51.4863l-102.982 4.72266l2.35645 51.4961c4.875 106.232 35.0508 263.293 61.6631 374.856c15.7578 66.0518 31.835 123.346 46.4834 165.687c21.752 62.8652 40.627 97.9453 78 103.262
c17.6289 2.49414 35.3164 -3.04785 49.8174 -15.6299c11.9238 -10.3438 48.1924 -41.8301 100.926 -277.229zM173.049 233.517c34.457 0.12793 67.4854 0.254883 99.1582 0.0878906c-17.7363 109.04 -45.5859 227.717 -69.2725 302.89
c-11.7715 -37.7461 -25.9189 -89.6006 -41.1367 -156.319c-11.4336 -50.1113 -21.4775 -100.046 -29.6709 -146.79c13.8438 0.0341797 27.5254 0.0830078 40.9219 0.131836z" />
    <glyph glyph-name="A" unicode="&#xc5;" horiz-adv-x="401" 
d="M343.246 408.095c24.1572 -107.833 49.9736 -256.84 49.9688 -351.639v-51.5449h-103.091v51.5449c0 21.6982 -1.51172 46.7686 -4.16797 73.9307c-35.5225 0.30957 -72.998 0.186523 -112.521 0.0439453c-18.5215 -0.0732422 -37.6025 -0.131836 -56.9785 -0.161133
c-3.65723 -29.4004 -6.10156 -55.7764 -7.11328 -77.8525l-2.36133 -51.4863l-102.982 4.72266l2.35645 51.4961c4.875 106.232 35.0508 263.293 61.6631 374.856c15.7578 66.0518 31.835 123.346 46.4834 165.687c21.752 62.8652 40.627 97.9453 78 103.262
c17.6289 2.49414 35.3164 -3.04785 49.8174 -15.6299c11.9238 -10.3438 48.1924 -41.8301 100.926 -277.229zM173.049 233.517c34.457 0.12793 67.4854 0.254883 99.1582 0.0878906c-17.7363 109.04 -45.5859 227.717 -69.2725 302.89
c-11.7715 -37.7461 -25.9189 -89.6006 -41.1367 -156.319c-11.4336 -50.1113 -21.4775 -100.046 -29.6709 -146.79c13.8438 0.0341797 27.5254 0.0830078 40.9219 0.131836z" />
    <glyph glyph-name="A" unicode="&#xc4;" horiz-adv-x="401" 
d="M343.246 408.095c24.1572 -107.833 49.9736 -256.84 49.9688 -351.639v-51.5449h-103.091v51.5449c0 21.6982 -1.51172 46.7686 -4.16797 73.9307c-35.5225 0.30957 -72.998 0.186523 -112.521 0.0439453c-18.5215 -0.0732422 -37.6025 -0.131836 -56.9785 -0.161133
c-3.65723 -29.4004 -6.10156 -55.7764 -7.11328 -77.8525l-2.36133 -51.4863l-102.982 4.72266l2.35645 51.4961c4.875 106.232 35.0508 263.293 61.6631 374.856c15.7578 66.0518 31.835 123.346 46.4834 165.687c21.752 62.8652 40.627 97.9453 78 103.262
c17.6289 2.49414 35.3164 -3.04785 49.8174 -15.6299c11.9238 -10.3438 48.1924 -41.8301 100.926 -277.229zM173.049 233.517c34.457 0.12793 67.4854 0.254883 99.1582 0.0878906c-17.7363 109.04 -45.5859 227.717 -69.2725 302.89
c-11.7715 -37.7461 -25.9189 -89.6006 -41.1367 -156.319c-11.4336 -50.1113 -21.4775 -100.046 -29.6709 -146.79c13.8438 0.0341797 27.5254 0.0830078 40.9219 0.131836z" />
    <glyph glyph-name="A" unicode="&#xc3;" horiz-adv-x="401" 
d="M343.246 408.095c24.1572 -107.833 49.9736 -256.84 49.9688 -351.639v-51.5449h-103.091v51.5449c0 21.6982 -1.51172 46.7686 -4.16797 73.9307c-35.5225 0.30957 -72.998 0.186523 -112.521 0.0439453c-18.5215 -0.0732422 -37.6025 -0.131836 -56.9785 -0.161133
c-3.65723 -29.4004 -6.10156 -55.7764 -7.11328 -77.8525l-2.36133 -51.4863l-102.982 4.72266l2.35645 51.4961c4.875 106.232 35.0508 263.293 61.6631 374.856c15.7578 66.0518 31.835 123.346 46.4834 165.687c21.752 62.8652 40.627 97.9453 78 103.262
c17.6289 2.49414 35.3164 -3.04785 49.8174 -15.6299c11.9238 -10.3438 48.1924 -41.8301 100.926 -277.229zM173.049 233.517c34.457 0.12793 67.4854 0.254883 99.1582 0.0878906c-17.7363 109.04 -45.5859 227.717 -69.2725 302.89
c-11.7715 -37.7461 -25.9189 -89.6006 -41.1367 -156.319c-11.4336 -50.1113 -21.4775 -100.046 -29.6709 -146.79c13.8438 0.0341797 27.5254 0.0830078 40.9219 0.131836z" />
    <glyph glyph-name="A" unicode="&#xc2;" horiz-adv-x="401" 
d="M343.246 408.095c24.1572 -107.833 49.9736 -256.84 49.9688 -351.639v-51.5449h-103.091v51.5449c0 21.6982 -1.51172 46.7686 -4.16797 73.9307c-35.5225 0.30957 -72.998 0.186523 -112.521 0.0439453c-18.5215 -0.0732422 -37.6025 -0.131836 -56.9785 -0.161133
c-3.65723 -29.4004 -6.10156 -55.7764 -7.11328 -77.8525l-2.36133 -51.4863l-102.982 4.72266l2.35645 51.4961c4.875 106.232 35.0508 263.293 61.6631 374.856c15.7578 66.0518 31.835 123.346 46.4834 165.687c21.752 62.8652 40.627 97.9453 78 103.262
c17.6289 2.49414 35.3164 -3.04785 49.8174 -15.6299c11.9238 -10.3438 48.1924 -41.8301 100.926 -277.229zM173.049 233.517c34.457 0.12793 67.4854 0.254883 99.1582 0.0878906c-17.7363 109.04 -45.5859 227.717 -69.2725 302.89
c-11.7715 -37.7461 -25.9189 -89.6006 -41.1367 -156.319c-11.4336 -50.1113 -21.4775 -100.046 -29.6709 -146.79c13.8438 0.0341797 27.5254 0.0830078 40.9219 0.131836z" />
    <glyph glyph-name="A" unicode="&#xc1;" horiz-adv-x="401" 
d="M343.246 408.095c24.1572 -107.833 49.9736 -256.84 49.9688 -351.639v-51.5449h-103.091v51.5449c0 21.6982 -1.51172 46.7686 -4.16797 73.9307c-35.5225 0.30957 -72.998 0.186523 -112.521 0.0439453c-18.5215 -0.0732422 -37.6025 -0.131836 -56.9785 -0.161133
c-3.65723 -29.4004 -6.10156 -55.7764 -7.11328 -77.8525l-2.36133 -51.4863l-102.982 4.72266l2.35645 51.4961c4.875 106.232 35.0508 263.293 61.6631 374.856c15.7578 66.0518 31.835 123.346 46.4834 165.687c21.752 62.8652 40.627 97.9453 78 103.262
c17.6289 2.49414 35.3164 -3.04785 49.8174 -15.6299c11.9238 -10.3438 48.1924 -41.8301 100.926 -277.229zM173.049 233.517c34.457 0.12793 67.4854 0.254883 99.1582 0.0878906c-17.7363 109.04 -45.5859 227.717 -69.2725 302.89
c-11.7715 -37.7461 -25.9189 -89.6006 -41.1367 -156.319c-11.4336 -50.1113 -21.4775 -100.046 -29.6709 -146.79c13.8438 0.0341797 27.5254 0.0830078 40.9219 0.131836z" />
    <glyph glyph-name="B" unicode="B" horiz-adv-x="364" 
d="M272.883 397.344c53.5625 -48.3398 80.7295 -96.7119 80.7539 -143.78c0.00976562 -55.7031 -34.1475 -118.667 -93.7236 -172.745c-20.7949 -18.875 -91.2793 -77.7842 -159.918 -77.7891c-3.70605 0 -7.39258 0.171875 -11.0791 0.525391l-40.1953 3.90723
l-15.0811 -0.319336l-1.08984 51.5303c-4.22656 199.568 -4.66797 384.709 -1.37891 582.608v60.9658h51.5449c7.92285 0 19.5381 0.9375 31.835 1.92871c46.3418 3.73047 109.826 8.8457 158.568 -18.2324c44.8447 -24.9131 74.2793 -78.7607 73.248 -133.998
c-1.05078 -55.9482 -31.502 -103.184 -83.5479 -129.595c-4.24121 -2.15527 -8.43359 -4.15332 -12.5674 -6.00879c8.24707 -6.48535 15.8613 -12.8916 22.6309 -18.998zM133.661 602.27c-0.510742 -35.6592 -0.893555 -70.9502 -1.1582 -106.045
c25.8857 -0.123047 51.6289 1.80176 83.6602 18.0557c17.6729 8.96875 26.7988 22.292 27.123 39.5967c0.353516 19.0225 -10.0146 36.2676 -20.2402 41.9473c-19.126 10.6279 -58.7764 8.76758 -89.3848 6.44531zM190.616 157.145
c36.4053 33.0479 59.9268 70.8809 59.9219 96.3838c-0.00488281 15.9844 -20.6523 48.168 -66.7783 84.0488c-18.3945 14.3096 -36.1797 25.6543 -51.6582 34.2939c0.078125 -84.0186 0.882812 -168.042 2.41406 -254.309c16.0283 8.16406 35.6104 20.9814 56.1006 39.582z
" />
    <glyph glyph-name="C" unicode="C" horiz-adv-x="362" 
d="M254.941 207.383l102.245 -13.1904l-6.59277 -51.123c-15.248 -118.19 -86.125 -162.76 -147.37 -165.058c-1.85547 -0.0683594 -3.73047 -0.102539 -5.61523 -0.102539c-60.416 0 -137.071 37.0488 -171.543 206.51c-18.2275 89.6104 -17.3486 198.258 2.41504 298.074
c7.27051 36.7002 49.6309 219.779 170.34 219.823h0.0390625c68.6045 0 120.199 -57.623 134.656 -150.385l7.9375 -50.9316l-101.858 -15.876l-7.9375 50.9316c-6.08691 39.0225 -21.7617 63.1748 -32.8018 63.1699c-5.91992 0 -20.5244 -11.0508 -36.5039 -41.4775
c-16.4258 -31.2803 -27.6826 -69.7236 -32.7393 -95.2754c-17.2158 -86.9199 -18.1338 -180.776 -2.52246 -257.5c7.61914 -37.4561 29.7197 -123.964 71.1523 -123.964c0.373047 0 0.746094 0.00976562 1.11914 0.0195312
c24.7168 0.927734 43.0273 29.0518 48.9873 75.2363z" />
    <glyph glyph-name="D" unicode="D" horiz-adv-x="377" 
d="M254.079 620.357c53.2637 -50.4111 116.542 -141.004 115.525 -286.352c-0.579102 -83.4834 -27.6924 -162.985 -76.3359 -223.857c-41.4717 -51.8984 -95.874 -86.3408 -156.555 -100.131l0.0146484 -0.697266l-3.32324 -0.0683594
c-15.4736 -3.31348 -31.3252 -5.34082 -47.4912 -5.91016l-51.5156 -1.81641l-0.196289 5.62598l-0.544922 -0.00976562l-0.825195 38.8604l-2.06152 58.5557l0.888672 0.0292969c-3.3877 182.539 -3.52051 348.647 -0.466797 532.247l0.859375 51.5352l1.60547 -0.0244141
l-0.658203 10.6084l51.4473 3.19531c38.7422 2.44434 109.517 -24.9043 169.633 -81.791zM134.562 116.342c85.2998 30.9219 131.322 127.837 131.955 218.38c1.00684 144.321 -79.5605 217.099 -133.035 247.133c-2.13086 -158.371 -1.78711 -305.845 1.08008 -465.513z
" />
    <glyph glyph-name="E" unicode="E" horiz-adv-x="379" 
d="M248.357 156.265l6.58984 51.1172l102.241 -13.1904l-6.59277 -51.123c-15.248 -118.19 -86.125 -162.76 -147.37 -165.058c-1.85059 -0.0683594 -3.72559 -0.102539 -5.61035 -0.102539c-60.416 0 -137.071 37.0488 -171.543 206.51
c-18.2324 89.6055 -17.3535 198.248 2.41016 298.074c14.6729 74.0879 65.3447 203.628 162.19 219.17c51.5693 8.28613 100.43 -13.3281 134.027 -59.2773c49.8271 -68.1523 55.7422 -173.015 14.3779 -255.001c-24.1328 -47.834 -83.415 -124.773 -218.621 -141.003
c1.71289 -14.2412 3.92676 -28.085 6.63672 -41.4082c7.62402 -37.4561 29.7246 -123.964 71.1572 -123.964c0.373047 0 0.746094 0.00976562 1.11914 0.0195312c24.7168 0.927734 43.0273 29.0518 48.9873 75.2363zM129.614 462.467
c-7.30469 -36.8916 -11.6738 -75.0283 -13.0879 -112.578c62.6738 9.45996 107.347 38.0107 130.513 83.9248c27.167 53.8525 17.4131 116.306 -5.56152 147.724c-11.8164 16.1611 -22.8125 18.7969 -29.4844 18.7969c-2.15039 0 -3.84863 -0.275391 -4.98242 -0.457031
c-29.1895 -4.68359 -65.5752 -77.7109 -77.3965 -137.41z" />
    <glyph glyph-name="E" unicode="&#xcb;" horiz-adv-x="379" 
d="M248.357 156.265l6.58984 51.1172l102.241 -13.1904l-6.59277 -51.123c-15.248 -118.19 -86.125 -162.76 -147.37 -165.058c-1.85059 -0.0683594 -3.72559 -0.102539 -5.61035 -0.102539c-60.416 0 -137.071 37.0488 -171.543 206.51
c-18.2324 89.6055 -17.3535 198.248 2.41016 298.074c14.6729 74.0879 65.3447 203.628 162.19 219.17c51.5693 8.28613 100.43 -13.3281 134.027 -59.2773c49.8271 -68.1523 55.7422 -173.015 14.3779 -255.001c-24.1328 -47.834 -83.415 -124.773 -218.621 -141.003
c1.71289 -14.2412 3.92676 -28.085 6.63672 -41.4082c7.62402 -37.4561 29.7246 -123.964 71.1572 -123.964c0.373047 0 0.746094 0.00976562 1.11914 0.0195312c24.7168 0.927734 43.0273 29.0518 48.9873 75.2363zM129.614 462.467
c-7.30469 -36.8916 -11.6738 -75.0283 -13.0879 -112.578c62.6738 9.45996 107.347 38.0107 130.513 83.9248c27.167 53.8525 17.4131 116.306 -5.56152 147.724c-11.8164 16.1611 -22.8125 18.7969 -29.4844 18.7969c-2.15039 0 -3.84863 -0.275391 -4.98242 -0.457031
c-29.1895 -4.68359 -65.5752 -77.7109 -77.3965 -137.41z" />
    <glyph glyph-name="E" unicode="&#xca;" horiz-adv-x="379" 
d="M248.357 156.265l6.58984 51.1172l102.241 -13.1904l-6.59277 -51.123c-15.248 -118.19 -86.125 -162.76 -147.37 -165.058c-1.85059 -0.0683594 -3.72559 -0.102539 -5.61035 -0.102539c-60.416 0 -137.071 37.0488 -171.543 206.51
c-18.2324 89.6055 -17.3535 198.248 2.41016 298.074c14.6729 74.0879 65.3447 203.628 162.19 219.17c51.5693 8.28613 100.43 -13.3281 134.027 -59.2773c49.8271 -68.1523 55.7422 -173.015 14.3779 -255.001c-24.1328 -47.834 -83.415 -124.773 -218.621 -141.003
c1.71289 -14.2412 3.92676 -28.085 6.63672 -41.4082c7.62402 -37.4561 29.7246 -123.964 71.1572 -123.964c0.373047 0 0.746094 0.00976562 1.11914 0.0195312c24.7168 0.927734 43.0273 29.0518 48.9873 75.2363zM129.614 462.467
c-7.30469 -36.8916 -11.6738 -75.0283 -13.0879 -112.578c62.6738 9.45996 107.347 38.0107 130.513 83.9248c27.167 53.8525 17.4131 116.306 -5.56152 147.724c-11.8164 16.1611 -22.8125 18.7969 -29.4844 18.7969c-2.15039 0 -3.84863 -0.275391 -4.98242 -0.457031
c-29.1895 -4.68359 -65.5752 -77.7109 -77.3965 -137.41z" />
    <glyph glyph-name="E" unicode="&#xc9;" horiz-adv-x="379" 
d="M248.357 156.265l6.58984 51.1172l102.241 -13.1904l-6.59277 -51.123c-15.248 -118.19 -86.125 -162.76 -147.37 -165.058c-1.85059 -0.0683594 -3.72559 -0.102539 -5.61035 -0.102539c-60.416 0 -137.071 37.0488 -171.543 206.51
c-18.2324 89.6055 -17.3535 198.248 2.41016 298.074c14.6729 74.0879 65.3447 203.628 162.19 219.17c51.5693 8.28613 100.43 -13.3281 134.027 -59.2773c49.8271 -68.1523 55.7422 -173.015 14.3779 -255.001c-24.1328 -47.834 -83.415 -124.773 -218.621 -141.003
c1.71289 -14.2412 3.92676 -28.085 6.63672 -41.4082c7.62402 -37.4561 29.7246 -123.964 71.1572 -123.964c0.373047 0 0.746094 0.00976562 1.11914 0.0195312c24.7168 0.927734 43.0273 29.0518 48.9873 75.2363zM129.614 462.467
c-7.30469 -36.8916 -11.6738 -75.0283 -13.0879 -112.578c62.6738 9.45996 107.347 38.0107 130.513 83.9248c27.167 53.8525 17.4131 116.306 -5.56152 147.724c-11.8164 16.1611 -22.8125 18.7969 -29.4844 18.7969c-2.15039 0 -3.84863 -0.275391 -4.98242 -0.457031
c-29.1895 -4.68359 -65.5752 -77.7109 -77.3965 -137.41z" />
    <glyph glyph-name="F" unicode="F" horiz-adv-x="285" 
d="M157.599 564.487c-19.1992 -18.5566 -29.876 -43.4541 -30.0771 -70.1152c-0.638672 -85.8789 -0.555664 -169.485 0.263672 -254.923c27.167 -0.186523 58.8008 -0.269531 74.5732 0.319336l51.5107 1.93945l3.86816 -103.017l-51.5107 -1.93457
c-10.667 -0.402344 -26.6162 -0.535156 -43.8467 -0.535156c-10.918 0 -22.3262 0.0537109 -33.2637 0.126953c0.436523 -26.9854 0.942383 -54.2949 1.52637 -82.0654l1.08008 -51.5303l-103.071 -2.16016l-1.08008 51.5352
c-3.24512 154.733 -4.24121 295.506 -3.1416 443.014c0.407227 54.5791 22.2529 105.535 61.5205 143.482c39.2529 37.9326 90.9209 57.917 145.437 56.5771l1.73242 -0.0537109l51.5107 -1.94434l-3.8877 -103.017l-51.9873 1.9541
c-26.71 0.677734 -51.9717 -9.11133 -71.1562 -27.6533z" />
    <glyph glyph-name="G" unicode="G" horiz-adv-x="375" 
d="M346.117 601.772c3.35742 -154.169 5.58008 -256.025 5.58984 -380.873c0 -136.369 -78.0547 -205.018 -155.412 -212.562c-4.60449 -0.451172 -9.28809 -0.676758 -14.0059 -0.676758c-67.1221 -0.00488281 -143.32 45.9492 -164.326 152.584l-9.96094 50.5732
l101.146 19.9258l9.96094 -50.5732c10.1123 -51.3584 40.9805 -71.7754 67.1699 -69.2324c31.0205 3.0293 62.3252 38.2031 62.3252 109.959c0 35.7529 -0.186523 69.6406 -0.530273 103.459c-27.3145 -23.0674 -56.7832 -29.8516 -81.8887 -29.8516
c-47.2061 0 -90.1748 29.415 -117.892 80.6953c-32.4346 60.0234 -43.3867 153.826 5.26172 228.101c31.7178 48.4277 98.6484 103.571 237.541 92.4473l52.959 1.14355zM166.189 397.592c12.9209 0 53.3223 15.0752 67.7891 195.572
c-37.0195 -3.18555 -73.7979 -15.2275 -94.1807 -46.3457c-24.123 -36.833 -18.6641 -89.5566 -0.804688 -122.604c9.44531 -17.4814 20.8291 -26.6221 27.1963 -26.6221z" />
    <glyph glyph-name="H" unicode="H" horiz-adv-x="419" 
d="M391.129 51.5879l1.23633 -51.5215l-103.061 -2.47461l-1.2373 51.5303c-2.28809 95.4717 -3.59863 187.688 -3.9668 279.537c-36.293 0.25 -82.875 0.829102 -122.923 1.3252c-10.5352 0.132812 -20.6328 0.260742 -29.9746 0.369141
c0.358398 -91.5938 1.66406 -183.541 3.94727 -278.758l1.23242 -51.5303l-103.061 -2.47461l-1.2373 51.5303c-4.87012 203.015 -5.37109 391.312 -1.58105 592.598l0.97168 51.54l103.071 -1.94434l-0.97168 -51.5352
c-1.32031 -69.9688 -2.10059 -138.348 -2.37012 -206.333c9.71484 -0.118164 20.2549 -0.250977 31.2559 -0.388672c39.7041 -0.496094 85.8643 -1.08008 121.627 -1.3252c0.264648 69.1836 1.05957 138.765 2.39941 209.98l0.97168 51.5352l103.071 -1.94434
l-0.97168 -51.5352c-3.76562 -199.784 -3.26465 -386.683 1.57031 -588.181z" />
    <glyph glyph-name="I" unicode="I" horiz-adv-x="157" 
d="M129.346 576.918l-0.648438 -51.54l-103.086 1.30566l0.65332 51.54c0.264648 20.8877 0.574219 41.9922 0.922852 63.3613l0.839844 51.54l103.076 -1.68359l-0.839844 -51.5352c-0.348633 -21.2412 -0.65332 -42.2275 -0.917969 -62.9883zM130.553 102.191
l2.1543 -102.295l-103.071 -2.15039l-2.15039 102.236c-2.44434 113.959 -3.18555 148.352 -1.78125 295.182l0.491211 51.54l103.086 -0.981445l-0.491211 -51.5449c-1.38477 -145.229 -0.716797 -176.313 1.7627 -291.986z" />
    <glyph glyph-name="I" unicode="&#xcf;" horiz-adv-x="157" 
d="M129.346 576.918l-0.648438 -51.54l-103.086 1.30566l0.65332 51.54c0.264648 20.8877 0.574219 41.9922 0.922852 63.3613l0.839844 51.54l103.076 -1.68359l-0.839844 -51.5352c-0.348633 -21.2412 -0.65332 -42.2275 -0.917969 -62.9883zM130.553 102.191
l2.1543 -102.295l-103.071 -2.15039l-2.15039 102.236c-2.44434 113.959 -3.18555 148.352 -1.78125 295.182l0.491211 51.54l103.086 -0.981445l-0.491211 -51.5449c-1.38477 -145.229 -0.716797 -176.313 1.7627 -291.986z" />
    <glyph glyph-name="I" unicode="&#xce;" horiz-adv-x="157" 
d="M129.346 576.918l-0.648438 -51.54l-103.086 1.30566l0.65332 51.54c0.264648 20.8877 0.574219 41.9922 0.922852 63.3613l0.839844 51.54l103.076 -1.68359l-0.839844 -51.5352c-0.348633 -21.2412 -0.65332 -42.2275 -0.917969 -62.9883zM130.553 102.191
l2.1543 -102.295l-103.071 -2.15039l-2.15039 102.236c-2.44434 113.959 -3.18555 148.352 -1.78125 295.182l0.491211 51.54l103.086 -0.981445l-0.491211 -51.5449c-1.38477 -145.229 -0.716797 -176.313 1.7627 -291.986z" />
    <glyph glyph-name="I" unicode="&#xcd;" horiz-adv-x="157" 
d="M129.346 576.918l-0.648438 -51.54l-103.086 1.30566l0.65332 51.54c0.264648 20.8877 0.574219 41.9922 0.922852 63.3613l0.839844 51.54l103.076 -1.68359l-0.839844 -51.5352c-0.348633 -21.2412 -0.65332 -42.2275 -0.917969 -62.9883zM130.553 102.191
l2.1543 -102.295l-103.071 -2.15039l-2.15039 102.236c-2.44434 113.959 -3.18555 148.352 -1.78125 295.182l0.491211 51.54l103.086 -0.981445l-0.491211 -51.5449c-1.38477 -145.229 -0.716797 -176.313 1.7627 -291.986z" />
    <glyph glyph-name="J" unicode="J" horiz-adv-x="307" 
d="M280.03 641.663c1.97363 -110.41 0.763672 -191.36 -0.404297 -269.655c-0.825195 -55.1533 -1.60059 -107.248 -1.13867 -165.244c1.09961 -137.602 -65.4629 -204.399 -127.769 -208.233c-2.12598 -0.12793 -4.2666 -0.196289 -6.41211 -0.196289
c-56.7148 0 -118.991 46.4697 -130.552 178.215c-12.8564 146.486 45.1396 305.78 164.224 339.918c0.0341797 22.9209 -0.0537109 47.0244 -0.313477 72.7188c-15.5127 0.147461 -30.3281 0.407227 -43.499 0.637695c-15.292 0.269531 -28.502 0.504883 -38.7129 0.504883
h-51.5449v103.091h51.5449c11.1143 0 24.7471 -0.235352 40.5293 -0.515625c25.3359 -0.446289 56.8623 -0.996094 86.9502 -0.623047l16.2588 0.206055l39.916 0.716797zM176.545 373.56c0.137695 9.04785 0.268555 18.1309 0.401367 27.291
c-31.4912 -27.5596 -50.0723 -80.5039 -57.5439 -129.757c-14.501 -95.585 10.8545 -162.25 24.8408 -169.569c8.72363 3.54883 31.708 34.3828 31.1533 104.426c-0.47168 59.1836 0.313477 111.853 1.14844 167.609z" />
    <glyph glyph-name="K" unicode="K" horiz-adv-x="346" 
d="M338.204 634.736c-2.60156 -127.936 -63.2734 -218.854 -169.162 -257.998c71.2354 -104.907 149.746 -236.273 151.989 -325.814l1.29102 -51.5303l-103.061 -2.57715l-1.29102 51.5303c-0.731445 28.9834 -17.9277 85.4521 -85.2363 194.792
c0.574219 -62.998 1.53125 -126.59 2.89062 -191.714l1.0752 -51.5303l-103.071 -2.15039l-1.0752 51.5352c-4.23145 202.931 -4.66797 391.14 -1.37402 592.309l0.844727 51.54l103.076 -1.69336l-0.844727 -51.5352c-0.927734 -56.4541 -1.54102 -111.867 -1.875 -166.888
c67.2588 24.2217 101.014 78.207 102.757 163.826l1.0459 51.5352l103.071 -2.10156z" />
    <glyph glyph-name="L" unicode="L" horiz-adv-x="251" 
d="M255.016 103.369l2.63965 -103.058l-51.5303 -1.32031c-5.12988 -0.132812 -12.2969 -0.186523 -20.6816 -0.186523c-19.7588 0 -46.2871 0.290039 -68.9326 0.544922c-15.0117 0.166992 -27.7217 0.30957 -34.1133 0.30957h-51.5449v55.4336
c-2.40039 114.627 -1.94922 223.604 -1.47266 338.962c0.324219 78.3682 0.658203 159.402 0.103516 246.356l-0.329102 51.5449l103.091 0.658203l0.329102 -51.54c0.55957 -87.499 0.220703 -168.803 -0.103516 -247.441
c-0.412109 -99.4287 -0.794922 -194.095 0.65332 -291.368c27.0488 -0.285156 57.5635 -0.544922 70.3613 -0.220703z" />
    <glyph glyph-name="M" unicode="M" horiz-adv-x="593" 
d="M568.797 203.484c-0.72168 -52.8262 -1.39941 -102.719 -0.614258 -149.409l0.864258 -51.54l-103.076 -1.73242l-0.864258 51.5352c-0.80957 48.2705 -0.0878906 101.288 0.614258 152.559c1.47754 108.122 3.00879 219.926 -8.95996 302.697
c-9.41113 65.084 -26.5488 104.567 -45.8564 105.618c-9.72461 0.491211 -12.5371 -2.14941 -14.5986 -4.10352c-23.0674 -21.8457 -34.7607 -100.435 -34.7607 -233.573v-51.5449h-0.0195312c0.0244141 -35.002 -0.794922 -71.457 -1.6543 -109.007
c-1.19336 -52.1982 -2.42578 -106.179 -1.50293 -160.91l0.864258 -51.54l-103.076 -1.73242l-0.864258 51.5352c-0.952148 56.7783 0.304688 111.794 1.51758 164.998c3.40234 149.157 6.61816 290.038 -49.4482 344.519
c-17.1279 16.6318 -41.3145 26.5039 -73.2432 29.8867c-2.07129 -169.015 -3.24414 -349.713 -0.0537109 -537.52l0.874023 -51.54l-103.076 -1.74805l-0.874023 51.5352c-3.53906 208.449 -1.75195 407.875 0.707031 592.328l0.6875 51.54l53.7393 -0.716797
c84.2002 4.15332 147.341 -15.3994 193.073 -59.8359c3.07812 -2.99414 6.01855 -6.08691 8.88086 -9.24805c9.70996 24.29 22.0312 42.9199 37.3281 57.4111c24.2607 22.9795 55.7871 34.1523 91.0781 32.1982c76.4395 -4.14355 124.312 -69.3506 142.305 -193.806
c13.127 -90.8076 11.5459 -206.735 10.0098 -318.854z" />
    <glyph glyph-name="N" unicode="N" horiz-adv-x="406" 
d="M380.836 203.357c-0.859375 -52.748 -1.66797 -102.576 -0.725586 -149.129l1.02637 -51.5352l-103.071 -2.06152l-1.03125 51.5352c-0.966797 48.4229 -0.107422 101.515 0.727539 152.863c2.76855 170.703 6.56836 404.482 -73.877 408.154
c-18.1934 0.849609 -26.1611 -4.33398 -31.5713 -9.50293c-24.2217 -23.1416 -37.6084 -88.6582 -39.8711 -194.939c-0.697266 -114.381 -0.452148 -232.935 1.75684 -354.464l0.9375 -51.5352l-103.071 -1.875l-0.9375 51.54
c-1.67871 92.3057 -2.23828 182.829 -2.11035 271.089h-0.0146484v51.5449c0 12.209 0.123047 23.9463 0.353516 35.3252c0.496094 80.3955 1.44824 158.715 2.52832 234.477l0.736328 51.54l90.042 -1.28613c24.4277 15.4688 53.21 22.5674 85.9189 21.0703
c85.0596 -3.88281 138.971 -68.6387 160.241 -192.475c15.7236 -91.5342 13.8389 -207.85 12.0127 -320.336z" />
    <glyph glyph-name="O" unicode="O" horiz-adv-x="409" 
d="M395.951 390.206c4.8457 -98.3975 -9.53809 -195.506 -39.4688 -266.427c-3.47559 -8.2373 -7.16699 -16.21 -10.9619 -23.6816c-14.1875 -27.957 -30.5049 -50.3965 -48.5068 -66.6797c-25.7188 -23.2734 -56.6455 -35.3887 -88.5547 -35.3887
c-13.3086 0 -26.7842 2.11133 -40.1318 6.39648c-41.2803 13.25 -77.4893 45.3359 -104.72 92.7871c-25.7334 44.835 -42.8018 102.124 -48.0693 161.322c-23.1367 260.058 71.0098 433.107 171.503 444.3c38.5898 4.31055 75.1963 -7.20117 105.814 -33.2783
c90.6357 -77.1709 102.089 -258.885 103.096 -279.351zM261.502 163.861c24.1182 57.1514 35.5967 137.803 31.4824 221.276c-3.71094 75.3447 -28.4375 173.129 -66.9639 205.932c-7.72168 6.57812 -14.8789 9.5625 -23.2539 9.5625
c-1.4043 0 -2.83789 -0.0878906 -4.31543 -0.25c-5.04199 -1.1582 -31.5508 -19.248 -54.4268 -80.4492c-25.1299 -67.2246 -34.29 -156.815 -25.8027 -252.258c3.91699 -44.0098 16.5967 -87.4404 34.7998 -119.148c13.8193 -24.084 30.8828 -40.834 46.8174 -45.9492
c7.27539 -2.33203 16.3027 -3.30371 28.001 7.27539c5.92969 5.36523 15.2129 16.126 25.7578 36.9014v0.00976562c2.70508 5.32617 5.36621 11.0742 7.9043 17.0977z" />
    <glyph glyph-name="O" unicode="&#xd6;" horiz-adv-x="409" 
d="M395.951 390.206c4.8457 -98.3975 -9.53809 -195.506 -39.4688 -266.427c-3.47559 -8.2373 -7.16699 -16.21 -10.9619 -23.6816c-14.1875 -27.957 -30.5049 -50.3965 -48.5068 -66.6797c-25.7188 -23.2734 -56.6455 -35.3887 -88.5547 -35.3887
c-13.3086 0 -26.7842 2.11133 -40.1318 6.39648c-41.2803 13.25 -77.4893 45.3359 -104.72 92.7871c-25.7334 44.835 -42.8018 102.124 -48.0693 161.322c-23.1367 260.058 71.0098 433.107 171.503 444.3c38.5898 4.31055 75.1963 -7.20117 105.814 -33.2783
c90.6357 -77.1709 102.089 -258.885 103.096 -279.351zM261.502 163.861c24.1182 57.1514 35.5967 137.803 31.4824 221.276c-3.71094 75.3447 -28.4375 173.129 -66.9639 205.932c-7.72168 6.57812 -14.8789 9.5625 -23.2539 9.5625
c-1.4043 0 -2.83789 -0.0878906 -4.31543 -0.25c-5.04199 -1.1582 -31.5508 -19.248 -54.4268 -80.4492c-25.1299 -67.2246 -34.29 -156.815 -25.8027 -252.258c3.91699 -44.0098 16.5967 -87.4404 34.7998 -119.148c13.8193 -24.084 30.8828 -40.834 46.8174 -45.9492
c7.27539 -2.33203 16.3027 -3.30371 28.001 7.27539c5.92969 5.36523 15.2129 16.126 25.7578 36.9014v0.00976562c2.70508 5.32617 5.36621 11.0742 7.9043 17.0977z" />
    <glyph glyph-name="O" unicode="&#xd5;" horiz-adv-x="409" 
d="M395.951 390.206c4.8457 -98.3975 -9.53809 -195.506 -39.4688 -266.427c-3.47559 -8.2373 -7.16699 -16.21 -10.9619 -23.6816c-14.1875 -27.957 -30.5049 -50.3965 -48.5068 -66.6797c-25.7188 -23.2734 -56.6455 -35.3887 -88.5547 -35.3887
c-13.3086 0 -26.7842 2.11133 -40.1318 6.39648c-41.2803 13.25 -77.4893 45.3359 -104.72 92.7871c-25.7334 44.835 -42.8018 102.124 -48.0693 161.322c-23.1367 260.058 71.0098 433.107 171.503 444.3c38.5898 4.31055 75.1963 -7.20117 105.814 -33.2783
c90.6357 -77.1709 102.089 -258.885 103.096 -279.351zM261.502 163.861c24.1182 57.1514 35.5967 137.803 31.4824 221.276c-3.71094 75.3447 -28.4375 173.129 -66.9639 205.932c-7.72168 6.57812 -14.8789 9.5625 -23.2539 9.5625
c-1.4043 0 -2.83789 -0.0878906 -4.31543 -0.25c-5.04199 -1.1582 -31.5508 -19.248 -54.4268 -80.4492c-25.1299 -67.2246 -34.29 -156.815 -25.8027 -252.258c3.91699 -44.0098 16.5967 -87.4404 34.7998 -119.148c13.8193 -24.084 30.8828 -40.834 46.8174 -45.9492
c7.27539 -2.33203 16.3027 -3.30371 28.001 7.27539c5.92969 5.36523 15.2129 16.126 25.7578 36.9014v0.00976562c2.70508 5.32617 5.36621 11.0742 7.9043 17.0977z" />
    <glyph glyph-name="O" unicode="&#xd4;" horiz-adv-x="409" 
d="M395.951 390.206c4.8457 -98.3975 -9.53809 -195.506 -39.4688 -266.427c-3.47559 -8.2373 -7.16699 -16.21 -10.9619 -23.6816c-14.1875 -27.957 -30.5049 -50.3965 -48.5068 -66.6797c-25.7188 -23.2734 -56.6455 -35.3887 -88.5547 -35.3887
c-13.3086 0 -26.7842 2.11133 -40.1318 6.39648c-41.2803 13.25 -77.4893 45.3359 -104.72 92.7871c-25.7334 44.835 -42.8018 102.124 -48.0693 161.322c-23.1367 260.058 71.0098 433.107 171.503 444.3c38.5898 4.31055 75.1963 -7.20117 105.814 -33.2783
c90.6357 -77.1709 102.089 -258.885 103.096 -279.351zM261.502 163.861c24.1182 57.1514 35.5967 137.803 31.4824 221.276c-3.71094 75.3447 -28.4375 173.129 -66.9639 205.932c-7.72168 6.57812 -14.8789 9.5625 -23.2539 9.5625
c-1.4043 0 -2.83789 -0.0878906 -4.31543 -0.25c-5.04199 -1.1582 -31.5508 -19.248 -54.4268 -80.4492c-25.1299 -67.2246 -34.29 -156.815 -25.8027 -252.258c3.91699 -44.0098 16.5967 -87.4404 34.7998 -119.148c13.8193 -24.084 30.8828 -40.834 46.8174 -45.9492
c7.27539 -2.33203 16.3027 -3.30371 28.001 7.27539c5.92969 5.36523 15.2129 16.126 25.7578 36.9014v0.00976562c2.70508 5.32617 5.36621 11.0742 7.9043 17.0977z" />
    <glyph glyph-name="O" unicode="&#xd3;" horiz-adv-x="409" 
d="M395.951 390.206c4.8457 -98.3975 -9.53809 -195.506 -39.4688 -266.427c-3.47559 -8.2373 -7.16699 -16.21 -10.9619 -23.6816c-14.1875 -27.957 -30.5049 -50.3965 -48.5068 -66.6797c-25.7188 -23.2734 -56.6455 -35.3887 -88.5547 -35.3887
c-13.3086 0 -26.7842 2.11133 -40.1318 6.39648c-41.2803 13.25 -77.4893 45.3359 -104.72 92.7871c-25.7334 44.835 -42.8018 102.124 -48.0693 161.322c-23.1367 260.058 71.0098 433.107 171.503 444.3c38.5898 4.31055 75.1963 -7.20117 105.814 -33.2783
c90.6357 -77.1709 102.089 -258.885 103.096 -279.351zM261.502 163.861c24.1182 57.1514 35.5967 137.803 31.4824 221.276c-3.71094 75.3447 -28.4375 173.129 -66.9639 205.932c-7.72168 6.57812 -14.8789 9.5625 -23.2539 9.5625
c-1.4043 0 -2.83789 -0.0878906 -4.31543 -0.25c-5.04199 -1.1582 -31.5508 -19.248 -54.4268 -80.4492c-25.1299 -67.2246 -34.29 -156.815 -25.8027 -252.258c3.91699 -44.0098 16.5967 -87.4404 34.7998 -119.148c13.8193 -24.084 30.8828 -40.834 46.8174 -45.9492
c7.27539 -2.33203 16.3027 -3.30371 28.001 7.27539c5.92969 5.36523 15.2129 16.126 25.7578 36.9014v0.00976562c2.70508 5.32617 5.36621 11.0742 7.9043 17.0977z" />
    <glyph glyph-name="P" unicode="P" horiz-adv-x="404" 
d="M407.089 526.752c4.02051 -41.8154 -15.1445 -86.3643 -56.9648 -132.387c-54.1865 -59.6553 -149.339 -121.951 -217.438 -146.796c0.569336 -64.7061 1.54102 -130.012 2.93555 -196.938l1.0752 -51.5352l-103.071 -2.15039l-1.0752 51.5352
c-4.23145 203.112 -4.66797 391.498 -1.37891 592.834v56.8662h51.5449c29.665 0 100.97 -7.45215 165.99 -27.4473c123.095 -37.8535 154.071 -99.1924 158.382 -143.982zM216.499 412.656c67.0527 50.377 89.3457 89.9297 87.9707 104.22
c-1.31543 13.7207 -24.6484 36.4395 -86.0605 55.3242c-29.1455 8.95898 -59.6309 14.7861 -84.8779 18.3301c-1.0459 -78.0195 -1.51758 -154.419 -1.40918 -230.828c24.3584 12.4688 54.3135 30.3672 84.377 52.9541z" />
    <glyph glyph-name="Q" unicode="Q" horiz-adv-x="442" 
d="M431.691 424.663c5.7041 -88.874 -11.3018 -176.693 -46.6523 -240.938c-4.09863 -7.44238 -8.44336 -14.6387 -12.915 -21.3936v-0.00488281c-16.1904 -24.457 -34.5801 -44.0098 -54.6582 -58.2021l35.9688 -0.947266l-2.71973 -103.056l-51.5303 1.35938
c-34.5791 0.908203 -65.0596 -1.73828 -97.3125 -4.53125c-12.7783 -1.10938 -25.9834 -2.25781 -39.9697 -3.23926l-51.418 -3.6084l-7.22656 102.835l40.3037 2.83301c-27.6826 14.5996 -52.9102 36.3223 -73.3516 63.6318
c-30.5244 40.7842 -50.8037 93.1055 -57.0918 147.326c-15.2178 131.092 12.1504 250.441 75.0654 327.455c33.4404 40.9268 74.2793 65.3789 115 68.8545c47.4902 4.08398 91.75 -10.29 127.999 -41.4922c66.6406 -57.3623 95.791 -163.457 100.509 -236.882z
M294.718 233.439c26.1455 47.5049 38.5771 114.801 34.0898 184.617c-3.70117 57.6084 -27.1719 132.903 -64.8789 165.357c-13.5439 11.6592 -27.9619 17.2207 -44.8936 17.2207c-2.3125 0 -4.67383 -0.103516 -7.08398 -0.30957
c-9.07715 -0.780273 -26.0381 -9.45508 -43.9365 -31.3691c-44.7119 -54.7217 -64.3389 -148.313 -52.498 -250.349c4.16797 -35.875 17.7314 -71.3877 37.2256 -97.4307c16.126 -21.5557 36.4736 -36.2432 57.2881 -41.3682
c17.4912 -4.30078 33.4707 -1.57129 47.457 8.12891c9.62207 6.67188 19.5332 17.4912 28.6641 31.291v-0.00488281c2.93555 4.4375 5.8125 9.21387 8.56641 14.2158z" />
    <glyph glyph-name="R" unicode="R" horiz-adv-x="413" 
d="M350.055 394.138c-21.3643 -23.5146 -49.1016 -47.4346 -79.0225 -69.3096c35.1094 -54.1865 105.564 -167.036 105.564 -266.71v-51.5449h-103.091v51.5449c0 70.4844 -62.0215 169.024 -89.9199 212.077c-17.8643 -9.29785 -35.1045 -17.0742 -50.9023 -22.8428
c0.569336 -64.7607 1.54102 -130.115 2.93555 -197.095l1.07031 -51.5352l-103.065 -2.14551l-1.0752 51.5303c-4.23145 203.24 -4.66797 391.738 -1.37891 593.206v56.8711h51.5449c29.6709 0 100.976 -7.45703 166.001 -27.4668
c123.085 -37.8779 154.062 -99.2412 158.372 -144.051c4.02539 -41.8496 -15.1689 -86.4385 -57.0332 -132.529zM216.487 412.475c67.0625 50.416 89.3555 90.0137 87.9805 104.333c-1.31543 13.7402 -24.6533 36.4844 -86.0703 55.3848
c-29.1406 8.96387 -59.626 14.7959 -84.8682 18.3398c-1.05078 -78.0889 -1.52246 -154.558 -1.41406 -231.036c24.3633 12.4736 54.3184 30.3818 84.3721 52.9785z" />
    <glyph glyph-name="S" unicode="S" horiz-adv-x="393" 
d="M386.623 184.585c4.85059 -33.8877 -3.71484 -69.7666 -24.1318 -101.037c-33.0137 -50.5684 -95.2607 -80.1016 -163.192 -80.1064c-15.1494 0 -30.5684 1.46777 -46.0225 4.49707c-61.2109 12.0078 -145.156 76.3555 -125.505 204.443l7.82031 50.9512
l101.897 -15.6357l-7.81543 -50.9463c-11.6543 -75.9434 41.1865 -87.2051 43.4443 -87.6465c41.9287 -8.21289 86.2236 5.0166 103.052 30.7988c6.51953 9.99023 9.66113 21.2373 8.39453 30.0781c-7.59473 53.0771 -72.9785 118.402 -130.67 176.04
c-45.3994 45.3594 -88.2803 88.2061 -115.767 133.521c-47.7012 78.6484 -28.0205 136.953 -3.1123 172.023c57.9512 81.5986 169.367 52.7969 258.889 29.6455c7.66797 -1.9834 15.2529 -3.94727 22.7148 -5.81738l49.999 -12.5381l-25.0703 -99.9932l-49.999 12.5381
c-7.69727 1.92969 -15.5322 3.95703 -23.4453 6.00391c-52.6348 13.5977 -132.182 34.167 -149.034 10.4658c-5.74805 -8.09473 -15.3701 -21.6387 7.20703 -58.8691c21.0205 -34.6533 59.625 -73.2188 100.488 -114.048c72.4629 -72.3994 147.39 -147.263 159.858 -234.369
z" />
    <glyph glyph-name="T" unicode="T" horiz-adv-x="327" 
d="M284.257 692.919l51.5303 -1.13379l-2.27734 -103.065l-51.5352 1.13867c-11.7373 0.259766 -37.6572 0.579102 -68.3096 0.893555c-2.57715 -181.837 -1.93848 -354.308 1.9834 -539.306l1.08984 -51.5352l-103.065 -2.17969l-1.09473 51.5303
c-3.94238 186.059 -4.59082 359.54 -1.99902 542.413c-33.0332 0.259766 -59.5859 0.431641 -67.0332 0.431641h-51.5449v103.091h51.5449c17.2451 0 200.884 -1.39453 240.711 -2.27832z" />
    <glyph glyph-name="U" unicode="U" horiz-adv-x="420" 
d="M392.515 699.968l-0.722656 -81.2871c-0.486328 -62.9492 -1.10938 -139.791 -5.1543 -216.927c-0.12793 -115.437 1.03027 -230.323 3.50977 -350.34l1.06543 -51.5352l-103.071 -2.13086l-0.65332 31.4971c-20.5596 -18.6494 -46.1016 -30.4414 -77.9072 -30.4414
c-36.9902 0 -70.8281 14.5703 -97.8672 42.1299c-92.2656 94.0332 -95.7021 327.356 -91.6865 538.667c0.500977 26.3809 0.932617 49.1641 0.569336 62.6543l-1.39453 51.5254l103.061 2.7832l1.39453 -51.5254c0.431641 -15.8613 0 -38.6055 -0.549805 -67.3975
c-2.04688 -107.621 -7.47656 -393.491 62.1982 -464.511c9.71484 -9.90625 17.7266 -11.2363 24.2803 -11.2363c10.5107 0 41.9824 29.0859 61.0645 161.916c6.30859 43.9219 10.3047 92.0654 12.9014 140.543c0.0986328 80.1748 0.810547 160.63 2.15039 243.25
l0.839844 51.54l2.87207 -0.0488281l0.0146484 1.83594z" />
    <glyph glyph-name="U" unicode="&#xdc;" horiz-adv-x="420" 
d="M392.515 699.968l-0.722656 -81.2871c-0.486328 -62.9492 -1.10938 -139.791 -5.1543 -216.927c-0.12793 -115.437 1.03027 -230.323 3.50977 -350.34l1.06543 -51.5352l-103.071 -2.13086l-0.65332 31.4971c-20.5596 -18.6494 -46.1016 -30.4414 -77.9072 -30.4414
c-36.9902 0 -70.8281 14.5703 -97.8672 42.1299c-92.2656 94.0332 -95.7021 327.356 -91.6865 538.667c0.500977 26.3809 0.932617 49.1641 0.569336 62.6543l-1.39453 51.5254l103.061 2.7832l1.39453 -51.5254c0.431641 -15.8613 0 -38.6055 -0.549805 -67.3975
c-2.04688 -107.621 -7.47656 -393.491 62.1982 -464.511c9.71484 -9.90625 17.7266 -11.2363 24.2803 -11.2363c10.5107 0 41.9824 29.0859 61.0645 161.916c6.30859 43.9219 10.3047 92.0654 12.9014 140.543c0.0986328 80.1748 0.810547 160.63 2.15039 243.25
l0.839844 51.54l2.87207 -0.0488281l0.0146484 1.83594z" />
    <glyph glyph-name="U" unicode="&#xdb;" horiz-adv-x="420" 
d="M392.515 699.968l-0.722656 -81.2871c-0.486328 -62.9492 -1.10938 -139.791 -5.1543 -216.927c-0.12793 -115.437 1.03027 -230.323 3.50977 -350.34l1.06543 -51.5352l-103.071 -2.13086l-0.65332 31.4971c-20.5596 -18.6494 -46.1016 -30.4414 -77.9072 -30.4414
c-36.9902 0 -70.8281 14.5703 -97.8672 42.1299c-92.2656 94.0332 -95.7021 327.356 -91.6865 538.667c0.500977 26.3809 0.932617 49.1641 0.569336 62.6543l-1.39453 51.5254l103.061 2.7832l1.39453 -51.5254c0.431641 -15.8613 0 -38.6055 -0.549805 -67.3975
c-2.04688 -107.621 -7.47656 -393.491 62.1982 -464.511c9.71484 -9.90625 17.7266 -11.2363 24.2803 -11.2363c10.5107 0 41.9824 29.0859 61.0645 161.916c6.30859 43.9219 10.3047 92.0654 12.9014 140.543c0.0986328 80.1748 0.810547 160.63 2.15039 243.25
l0.839844 51.54l2.87207 -0.0488281l0.0146484 1.83594z" />
    <glyph glyph-name="U" unicode="&#xda;" horiz-adv-x="420" 
d="M392.515 699.968l-0.722656 -81.2871c-0.486328 -62.9492 -1.10938 -139.791 -5.1543 -216.927c-0.12793 -115.437 1.03027 -230.323 3.50977 -350.34l1.06543 -51.5352l-103.071 -2.13086l-0.65332 31.4971c-20.5596 -18.6494 -46.1016 -30.4414 -77.9072 -30.4414
c-36.9902 0 -70.8281 14.5703 -97.8672 42.1299c-92.2656 94.0332 -95.7021 327.356 -91.6865 538.667c0.500977 26.3809 0.932617 49.1641 0.569336 62.6543l-1.39453 51.5254l103.061 2.7832l1.39453 -51.5254c0.431641 -15.8613 0 -38.6055 -0.549805 -67.3975
c-2.04688 -107.621 -7.47656 -393.491 62.1982 -464.511c9.71484 -9.90625 17.7266 -11.2363 24.2803 -11.2363c10.5107 0 41.9824 29.0859 61.0645 161.916c6.30859 43.9219 10.3047 92.0654 12.9014 140.543c0.0986328 80.1748 0.810547 160.63 2.15039 243.25
l0.839844 51.54l2.87207 -0.0488281l0.0146484 1.83594z" />
    <glyph glyph-name="V" unicode="V" horiz-adv-x="410" 
d="M302.129 697.264l103.096 0.000976562v-51.5449c0 -111.132 -42.002 -308.069 -124.838 -585.334c-2.5332 -8.4873 -4.4082 -14.751 -5.45898 -18.4131l-14.1973 -49.5518l-2.60156 0.746094v-0.0537109h-103.091v51.5449c0 26.2783 -29.5186 116.046 -55.5713 195.249
c-46.6211 141.759 -99.4668 302.438 -99.4668 406.338v51.5449h103.091v-51.5449c0 -87.3867 52.2861 -246.382 94.3076 -374.136c7.08398 -21.5557 13.6084 -41.4473 19.5381 -59.8467c69.3848 249.759 85.1924 373.069 85.1924 433.456v51.5449z" />
    <glyph glyph-name="W" unicode="W" horiz-adv-x="585" 
d="M478.355 698.313l103.079 -0.00195312v-51.5449c0 -102.256 -41.2119 -262.267 -77.5684 -403.437c-21.6045 -83.8955 -43.9453 -170.648 -43.9453 -198.685v-51.5449h-102.491l-0.230469 -0.0634766l-0.0146484 0.0634766h-0.348633v1.2959l-12.9795 48.4277
c-4.19238 15.6504 -14.3691 32.1895 -27.251 53.1367c-7.37793 11.998 -15.3945 25.0566 -23.3525 39.6807c-12.3066 -24.6436 -24.918 -44.9326 -35.2617 -61.54c-6.82812 -10.957 -15.2959 -24.5654 -16.999 -29.627l-11.1875 -49.8857l-2.19922 0.496094v-1.9834
h-103.091v51.5449c0 28.0361 -22.3408 114.789 -43.9453 198.686c-36.3564 141.17 -77.5635 301.181 -77.5635 403.437v51.5449h103.091v-51.5449c0 -89.1982 41.2021 -249.175 74.3086 -377.724c8.22266 -31.9238 15.4639 -60.1807 21.6543 -85.2363
c20.2793 41.0889 37.751 94.1162 37.751 167.89v51.5449h104.833v-51.5449c0 -78.1182 17.7412 -126.688 38.3984 -165.264c6.05273 24.4033 13.0674 51.7959 21.0049 82.6104c33.1064 128.544 74.3086 288.525 74.3086 377.724v51.5449z" />
    <glyph glyph-name="X" unicode="X" horiz-adv-x="389" 
d="M270.247 294.558c56.9062 -80.3223 110.65 -156.188 110.655 -248.375v-51.5449h-103.091v51.5449c0 55.9883 -37.7949 112.526 -83.3613 177.026c-45.5664 -64.5 -83.3613 -121.038 -83.3613 -177.026v-51.5449h-103.091v51.5449
c0 92.1924 53.7441 168.058 110.65 248.38c4.48242 6.33301 9.01367 12.7295 13.5547 19.1895c-55.5508 86.5664 -106.732 192.116 -109.472 332.015l-1.00684 51.5303l103.065 2.01758l1.0166 -51.54c1.85059 -94.5049 31.0303 -171.003 68.6436 -237.688
c37.6133 66.6895 66.793 143.188 68.6436 237.688l1.01172 51.5352l103.065 -2.01758l-1.00684 -51.5303c-2.74414 -139.898 -53.9209 -245.443 -109.472 -332.015c4.54102 -6.45996 9.06738 -12.8564 13.5547 -19.1895z" />
    <glyph glyph-name="Y" unicode="Y" horiz-adv-x="377" 
d="M347.725 600.477c3.35254 -157.513 5.56836 -261.564 5.56836 -389.122c0 -148.745 -91.0488 -216.608 -175.637 -216.712h-0.180664c-70.0332 -0.00488281 -128.466 54.1963 -142.128 131.862c-9.63672 54.7852 4.66309 124.15 59.9834 185.46
c-26.4941 20.2158 -51.5059 56.4004 -65.2607 120.12c-13.6182 63.0762 -13.584 136.339 -13.5596 184.821c0.00488281 11.9434 0.00976562 22.2568 -0.186523 30.1309l-1.32031 51.5254l103.056 2.63086l1.31543 -51.5303
c0.240234 -9.21387 0.230469 -20.1514 0.225586 -32.8115c-0.0195312 -44.083 -0.0537109 -110.719 11.2373 -163.015c5.08105 -23.5293 16.6318 -62.998 36.9453 -62.998c14.084 0 60.8428 18.4287 71.0488 255.532l2.21387 51.4961l51.4668 -2.21387l53.1699 1.12402z
M177.524 97.7295c33.5293 0.0390625 72.6787 29.8213 72.6836 113.619c0 30.2598 -0.123047 59.209 -0.363281 87.8926c-94.3574 -46.4443 -120.798 -110.355 -112.963 -154.876c4.75195 -27.0293 21.8311 -46.6357 40.6084 -46.6357h0.0341797z" />
    <glyph glyph-name="Y" unicode="&#x178;" horiz-adv-x="377" 
d="M347.725 600.477c3.35254 -157.513 5.56836 -261.564 5.56836 -389.122c0 -148.745 -91.0488 -216.608 -175.637 -216.712h-0.180664c-70.0332 -0.00488281 -128.466 54.1963 -142.128 131.862c-9.63672 54.7852 4.66309 124.15 59.9834 185.46
c-26.4941 20.2158 -51.5059 56.4004 -65.2607 120.12c-13.6182 63.0762 -13.584 136.339 -13.5596 184.821c0.00488281 11.9434 0.00976562 22.2568 -0.186523 30.1309l-1.32031 51.5254l103.056 2.63086l1.31543 -51.5303
c0.240234 -9.21387 0.230469 -20.1514 0.225586 -32.8115c-0.0195312 -44.083 -0.0537109 -110.719 11.2373 -163.015c5.08105 -23.5293 16.6318 -62.998 36.9453 -62.998c14.084 0 60.8428 18.4287 71.0488 255.532l2.21387 51.4961l51.4668 -2.21387l53.1699 1.12402z
M177.524 97.7295c33.5293 0.0390625 72.6787 29.8213 72.6836 113.619c0 30.2598 -0.123047 59.209 -0.363281 87.8926c-94.3574 -46.4443 -120.798 -110.355 -112.963 -154.876c4.75195 -27.0293 21.8311 -46.6357 40.6084 -46.6357h0.0341797z" />
    <glyph glyph-name="Y" unicode="&#xdd;" horiz-adv-x="377" 
d="M347.725 600.477c3.35254 -157.513 5.56836 -261.564 5.56836 -389.122c0 -148.745 -91.0488 -216.608 -175.637 -216.712h-0.180664c-70.0332 -0.00488281 -128.466 54.1963 -142.128 131.862c-9.63672 54.7852 4.66309 124.15 59.9834 185.46
c-26.4941 20.2158 -51.5059 56.4004 -65.2607 120.12c-13.6182 63.0762 -13.584 136.339 -13.5596 184.821c0.00488281 11.9434 0.00976562 22.2568 -0.186523 30.1309l-1.32031 51.5254l103.056 2.63086l1.31543 -51.5303
c0.240234 -9.21387 0.230469 -20.1514 0.225586 -32.8115c-0.0195312 -44.083 -0.0537109 -110.719 11.2373 -163.015c5.08105 -23.5293 16.6318 -62.998 36.9453 -62.998c14.084 0 60.8428 18.4287 71.0488 255.532l2.21387 51.4961l51.4668 -2.21387l53.1699 1.12402z
M177.524 97.7295c33.5293 0.0390625 72.6787 29.8213 72.6836 113.619c0 30.2598 -0.123047 59.209 -0.363281 87.8926c-94.3574 -46.4443 -120.798 -110.355 -112.963 -154.876c4.75195 -27.0293 21.8311 -46.6357 40.6084 -46.6357h0.0341797z" />
    <glyph glyph-name="Z" unicode="Z" horiz-adv-x="367" 
d="M352.884 296.517c9.79395 -53.5879 3.85547 -115.096 -16.3057 -168.776c-29.1943 -77.7549 -83.1699 -127.734 -144.391 -133.709c-4.0498 -0.397461 -8.09961 -0.59375 -12.125 -0.59375c-58.3691 0 -113.724 41.0645 -146.619 109.831l-22.2432 46.499
l92.9922 44.4912l22.2432 -46.499c17.7656 -37.127 41.3486 -52.5859 55.7373 -51.123c16.8232 1.63965 42.1045 25.3066 57.8916 67.3477c13.5732 36.165 17.8438 78.7754 11.4033 113.993c-0.814453 4.45703 -20.9219 109.491 -99.5654 113.369l-43.7148 2.15527
l-5.03711 -4.08887l-64.9668 80.042l40.0186 32.4834c23.5732 19.1309 59.1104 57.2988 91.8936 94.6318c-36.6064 -0.643555 -76.1738 -1.87109 -108.392 -4.1543l-51.418 -3.64258l-7.28516 102.83l51.418 3.64258c88.1572 6.24902 221.87 5.0166 227.521 4.95801
c19.749 -0.191406 37.6475 -11.6543 46.0908 -29.5088c8.43848 -17.8545 5.93457 -38.9639 -6.44629 -54.3486c-3.30371 -4.10352 -59.0508 -73.208 -113.605 -131.602c91.5 -30.8828 133.885 -127.97 144.905 -188.229z" />
    <glyph glyph-name="bracketleft" unicode="[" horiz-adv-x="291" 
d="M221.208 -121.937l19.9365 -101.151l-50.5732 -9.96582c-13.2002 -2.60156 -26.2432 -3.8584 -38.7119 -3.8584c-36.9502 0 -68.9082 11.0254 -85.2305 30.7646c-14.1084 17.0791 -14.1084 17.0791 -15.5713 189.005c-0.746094 88.2207 -1.11914 207.963 -1.0459 337.16
c0.0683594 124.921 0.564453 247.564 1.35938 336.473c0.426758 47.8877 0.932617 85.5449 1.49707 111.937c1.14355 53.2588 1.41309 65.9092 20.4941 81.8242c19.7686 16.5137 43.4404 16.1699 101.171 11.0986l51.3486 -4.50195l-9.00293 -102.697l-51.3486 4.50195
c-3.5293 0.314453 -6.79883 0.583984 -9.83301 0.829102c-3.26465 -168.219 -3.2793 -747.877 0.0927734 -893.171c4.39355 0.176758 9.37598 0.707031 14.8447 1.78711z" />
    <glyph glyph-name="backslash" unicode="\" horiz-adv-x="432" 
d="M381.539 -85.5713l-99.9355 -25.2988l-231.604 914.898l99.9355 25.2988z" />
    <glyph glyph-name="bracketright" unicode="]" horiz-adv-x="291" 
d="M241.14 320.022c0.0732422 -129.212 -0.299805 -248.948 -1.05078 -337.154c-1.45801 -171.936 -1.45801 -171.936 -15.5713 -189.004c-16.3223 -19.7393 -48.2852 -30.7646 -85.2305 -30.7646c-12.4736 0 -25.5117 1.25684 -38.7119 3.8584l-50.5732 9.96582
l19.9355 101.146l50.5732 -9.96582c5.46387 -1.0752 10.4463 -1.61035 14.8447 -1.78711c3.37207 145.274 3.35742 724.938 0.0976562 893.171c-3.03418 -0.245117 -6.30859 -0.520508 -9.83789 -0.830078l-51.3486 -4.50195l-9.00293 102.697l51.3486 4.50195
c57.7207 5.05664 81.3975 5.41504 101.2 -11.1191c19.0566 -15.9053 19.332 -28.5557 20.4707 -81.8047c0.569336 -26.3916 1.07031 -64.0537 1.49707 -111.937c0.794922 -88.9229 1.28613 -211.566 1.35938 -336.473z" />
    <glyph glyph-name="asciicircum" unicode="^" horiz-adv-x="382" 
d="M316.032 522.969l15.7188 -49.0977l-98.1816 -31.4375l-15.7188 49.0908c-6.87793 21.4873 -15.5625 55.3799 -23.8242 89.8125c-11.4727 -35.0264 -22.5967 -69.3457 -30.2354 -93.7139l-15.4189 -49.1885l-98.373 30.834l15.4189 49.1885
c23.3086 74.3525 78.2559 238.954 78.8105 240.608l16.3223 48.8945l97.7842 -32.6504l-1.13379 -3.39258l10.0635 -47.1807c0.319336 -1.48242 31.8213 -148.848 48.7676 -201.768z" />
    <glyph glyph-name="underscore" unicode="_" horiz-adv-x="454" 
d="M352.192 -23.4453l51.5391 -0.548828l-1.09961 -103.086l-51.5449 0.549805c-40.2842 0.407227 -81.9277 -1.21777 -122.182 -2.81836c-36.8672 -1.45801 -74.8486 -2.96484 -112.918 -2.96484c-4.81055 0 -9.63086 0.0244141 -14.4463 0.078125l-51.54 0.544922
l1.09961 103.086l51.5449 -0.549805c40.2939 -0.382812 81.9277 1.22754 122.182 2.81836c41.5254 1.64941 84.4404 3.37695 127.365 2.89062z" />
    <glyph glyph-name="grave" unicode="`" horiz-adv-x="220" 
d="M161.796 613.108l8.12402 -50.8975l-101.8 -16.2588l-8.12988 50.9023c-7.28516 45.6299 -10.6133 92.6982 -9.89648 139.899l0.785156 51.5352l103.076 -1.56641l-0.780273 -51.54c-0.62793 -41.2461 2.27344 -82.3203 8.62109 -122.074z" />
    <glyph glyph-name="a" unicode="a" horiz-adv-x="402" 
d="M344.246 408.095c24.1572 -107.833 49.9736 -256.84 49.9688 -351.639v-51.5449h-103.091v51.5449c0 21.6982 -1.51172 46.7686 -4.16797 73.9307c-35.5225 0.30957 -72.998 0.186523 -112.521 0.0439453c-18.5215 -0.0732422 -37.6025 -0.131836 -56.9785 -0.161133
c-3.65723 -29.4004 -6.10156 -55.7764 -7.11328 -77.8525l-2.36133 -51.4863l-102.982 4.72266l2.35645 51.4961c4.875 106.232 35.0508 263.293 61.6631 374.856c15.7578 66.0518 31.835 123.346 46.4834 165.687c21.752 62.8652 40.627 97.9453 78 103.262
c17.6289 2.49414 35.3164 -3.04785 49.8174 -15.6299c11.9238 -10.3438 48.1924 -41.8301 100.926 -277.229zM174.049 233.517c34.457 0.12793 67.4854 0.254883 99.1582 0.0878906c-17.7363 109.04 -45.5859 227.717 -69.2725 302.89
c-11.7715 -37.7461 -25.9189 -89.6006 -41.1367 -156.319c-11.4336 -50.1113 -21.4775 -100.046 -29.6709 -146.79c13.8438 0.0341797 27.5254 0.0830078 40.9219 0.131836z" />
    <glyph glyph-name="a" unicode="&#xe5;" horiz-adv-x="402" 
d="M344.246 408.095c24.1572 -107.833 49.9736 -256.84 49.9688 -351.639v-51.5449h-103.091v51.5449c0 21.6982 -1.51172 46.7686 -4.16797 73.9307c-35.5225 0.30957 -72.998 0.186523 -112.521 0.0439453c-18.5215 -0.0732422 -37.6025 -0.131836 -56.9785 -0.161133
c-3.65723 -29.4004 -6.10156 -55.7764 -7.11328 -77.8525l-2.36133 -51.4863l-102.982 4.72266l2.35645 51.4961c4.875 106.232 35.0508 263.293 61.6631 374.856c15.7578 66.0518 31.835 123.346 46.4834 165.687c21.752 62.8652 40.627 97.9453 78 103.262
c17.6289 2.49414 35.3164 -3.04785 49.8174 -15.6299c11.9238 -10.3438 48.1924 -41.8301 100.926 -277.229zM174.049 233.517c34.457 0.12793 67.4854 0.254883 99.1582 0.0878906c-17.7363 109.04 -45.5859 227.717 -69.2725 302.89
c-11.7715 -37.7461 -25.9189 -89.6006 -41.1367 -156.319c-11.4336 -50.1113 -21.4775 -100.046 -29.6709 -146.79c13.8438 0.0341797 27.5254 0.0830078 40.9219 0.131836z" />
    <glyph glyph-name="a" unicode="&#xe4;" horiz-adv-x="402" 
d="M344.246 408.095c24.1572 -107.833 49.9736 -256.84 49.9688 -351.639v-51.5449h-103.091v51.5449c0 21.6982 -1.51172 46.7686 -4.16797 73.9307c-35.5225 0.30957 -72.998 0.186523 -112.521 0.0439453c-18.5215 -0.0732422 -37.6025 -0.131836 -56.9785 -0.161133
c-3.65723 -29.4004 -6.10156 -55.7764 -7.11328 -77.8525l-2.36133 -51.4863l-102.982 4.72266l2.35645 51.4961c4.875 106.232 35.0508 263.293 61.6631 374.856c15.7578 66.0518 31.835 123.346 46.4834 165.687c21.752 62.8652 40.627 97.9453 78 103.262
c17.6289 2.49414 35.3164 -3.04785 49.8174 -15.6299c11.9238 -10.3438 48.1924 -41.8301 100.926 -277.229zM174.049 233.517c34.457 0.12793 67.4854 0.254883 99.1582 0.0878906c-17.7363 109.04 -45.5859 227.717 -69.2725 302.89
c-11.7715 -37.7461 -25.9189 -89.6006 -41.1367 -156.319c-11.4336 -50.1113 -21.4775 -100.046 -29.6709 -146.79c13.8438 0.0341797 27.5254 0.0830078 40.9219 0.131836z" />
    <glyph glyph-name="a" unicode="&#xe3;" horiz-adv-x="402" 
d="M344.246 408.095c24.1572 -107.833 49.9736 -256.84 49.9688 -351.639v-51.5449h-103.091v51.5449c0 21.6982 -1.51172 46.7686 -4.16797 73.9307c-35.5225 0.30957 -72.998 0.186523 -112.521 0.0439453c-18.5215 -0.0732422 -37.6025 -0.131836 -56.9785 -0.161133
c-3.65723 -29.4004 -6.10156 -55.7764 -7.11328 -77.8525l-2.36133 -51.4863l-102.982 4.72266l2.35645 51.4961c4.875 106.232 35.0508 263.293 61.6631 374.856c15.7578 66.0518 31.835 123.346 46.4834 165.687c21.752 62.8652 40.627 97.9453 78 103.262
c17.6289 2.49414 35.3164 -3.04785 49.8174 -15.6299c11.9238 -10.3438 48.1924 -41.8301 100.926 -277.229zM174.049 233.517c34.457 0.12793 67.4854 0.254883 99.1582 0.0878906c-17.7363 109.04 -45.5859 227.717 -69.2725 302.89
c-11.7715 -37.7461 -25.9189 -89.6006 -41.1367 -156.319c-11.4336 -50.1113 -21.4775 -100.046 -29.6709 -146.79c13.8438 0.0341797 27.5254 0.0830078 40.9219 0.131836z" />
    <glyph glyph-name="a" unicode="&#xe2;" horiz-adv-x="402" 
d="M344.246 408.095c24.1572 -107.833 49.9736 -256.84 49.9688 -351.639v-51.5449h-103.091v51.5449c0 21.6982 -1.51172 46.7686 -4.16797 73.9307c-35.5225 0.30957 -72.998 0.186523 -112.521 0.0439453c-18.5215 -0.0732422 -37.6025 -0.131836 -56.9785 -0.161133
c-3.65723 -29.4004 -6.10156 -55.7764 -7.11328 -77.8525l-2.36133 -51.4863l-102.982 4.72266l2.35645 51.4961c4.875 106.232 35.0508 263.293 61.6631 374.856c15.7578 66.0518 31.835 123.346 46.4834 165.687c21.752 62.8652 40.627 97.9453 78 103.262
c17.6289 2.49414 35.3164 -3.04785 49.8174 -15.6299c11.9238 -10.3438 48.1924 -41.8301 100.926 -277.229zM174.049 233.517c34.457 0.12793 67.4854 0.254883 99.1582 0.0878906c-17.7363 109.04 -45.5859 227.717 -69.2725 302.89
c-11.7715 -37.7461 -25.9189 -89.6006 -41.1367 -156.319c-11.4336 -50.1113 -21.4775 -100.046 -29.6709 -146.79c13.8438 0.0341797 27.5254 0.0830078 40.9219 0.131836z" />
    <glyph glyph-name="a" unicode="&#xe1;" horiz-adv-x="402" 
d="M344.246 408.095c24.1572 -107.833 49.9736 -256.84 49.9688 -351.639v-51.5449h-103.091v51.5449c0 21.6982 -1.51172 46.7686 -4.16797 73.9307c-35.5225 0.30957 -72.998 0.186523 -112.521 0.0439453c-18.5215 -0.0732422 -37.6025 -0.131836 -56.9785 -0.161133
c-3.65723 -29.4004 -6.10156 -55.7764 -7.11328 -77.8525l-2.36133 -51.4863l-102.982 4.72266l2.35645 51.4961c4.875 106.232 35.0508 263.293 61.6631 374.856c15.7578 66.0518 31.835 123.346 46.4834 165.687c21.752 62.8652 40.627 97.9453 78 103.262
c17.6289 2.49414 35.3164 -3.04785 49.8174 -15.6299c11.9238 -10.3438 48.1924 -41.8301 100.926 -277.229zM174.049 233.517c34.457 0.12793 67.4854 0.254883 99.1582 0.0878906c-17.7363 109.04 -45.5859 227.717 -69.2725 302.89
c-11.7715 -37.7461 -25.9189 -89.6006 -41.1367 -156.319c-11.4336 -50.1113 -21.4775 -100.046 -29.6709 -146.79c13.8438 0.0341797 27.5254 0.0830078 40.9219 0.131836z" />
    <glyph glyph-name="b" unicode="b" horiz-adv-x="366" 
d="M273.883 397.344c53.5625 -48.3398 80.7295 -96.7119 80.7539 -143.78c0.00976562 -55.7031 -34.1475 -118.667 -93.7236 -172.745c-20.7949 -18.875 -91.2793 -77.7842 -159.918 -77.7891c-3.70605 0 -7.39258 0.171875 -11.0791 0.525391l-40.1953 3.90723
l-15.0811 -0.319336l-1.08984 51.5303c-4.22656 199.568 -4.66797 384.709 -1.37891 582.608v60.9658h51.5449c7.92285 0 19.5381 0.9375 31.835 1.92871c46.3418 3.73047 109.826 8.8457 158.568 -18.2324c44.8447 -24.9131 74.2793 -78.7607 73.248 -133.998
c-1.05078 -55.9482 -31.502 -103.184 -83.5479 -129.595c-4.24121 -2.15527 -8.43359 -4.15332 -12.5674 -6.00879c8.24707 -6.48535 15.8613 -12.8916 22.6309 -18.998zM134.661 602.27c-0.510742 -35.6592 -0.893555 -70.9502 -1.1582 -106.045
c25.8857 -0.123047 51.6289 1.80176 83.6602 18.0557c17.6729 8.96875 26.7988 22.292 27.123 39.5967c0.353516 19.0225 -10.0146 36.2676 -20.2402 41.9473c-19.126 10.6279 -58.7764 8.76758 -89.3848 6.44531zM191.616 157.145
c36.4053 33.0479 59.9268 70.8809 59.9219 96.3838c-0.00488281 15.9844 -20.6523 48.168 -66.7783 84.0488c-18.3945 14.3096 -36.1797 25.6543 -51.6582 34.2939c0.078125 -84.0186 0.882812 -168.042 2.41406 -254.309c16.0283 8.16406 35.6104 20.9814 56.1006 39.582z
" />
    <glyph glyph-name="c" unicode="c" horiz-adv-x="363" 
d="M255.941 207.383l102.245 -13.1904l-6.59277 -51.123c-15.248 -118.19 -86.125 -162.76 -147.37 -165.058c-1.85547 -0.0683594 -3.73047 -0.102539 -5.61523 -0.102539c-60.416 0 -137.071 37.0488 -171.543 206.51c-18.2275 89.6104 -17.3486 198.258 2.41504 298.074
c7.27051 36.7002 49.6309 219.779 170.34 219.823h0.0390625c68.6045 0 120.199 -57.623 134.656 -150.385l7.9375 -50.9316l-101.858 -15.876l-7.9375 50.9316c-6.08691 39.0225 -21.7617 63.1748 -32.8018 63.1699c-5.91992 0 -20.5244 -11.0508 -36.5039 -41.4775
c-16.4258 -31.2803 -27.6826 -69.7236 -32.7393 -95.2754c-17.2158 -86.9199 -18.1338 -180.776 -2.52246 -257.5c7.61914 -37.4561 29.7197 -123.964 71.1523 -123.964c0.373047 0 0.746094 0.00976562 1.11914 0.0195312
c24.7168 0.927734 43.0273 29.0518 48.9873 75.2363z" />
    <glyph glyph-name="d" unicode="d" horiz-adv-x="378" 
d="M255.079 620.357c53.2637 -50.4111 116.542 -141.004 115.525 -286.352c-0.579102 -83.4834 -27.6924 -162.985 -76.3359 -223.857c-41.4717 -51.8984 -95.874 -86.3408 -156.555 -100.131l0.0146484 -0.697266l-3.32324 -0.0683594
c-15.4736 -3.31348 -31.3252 -5.34082 -47.4912 -5.91016l-51.5156 -1.81641l-0.196289 5.62598l-0.544922 -0.00976562l-0.825195 38.8604l-2.06152 58.5557l0.888672 0.0292969c-3.3877 182.539 -3.52051 348.647 -0.466797 532.247l0.859375 51.5352l1.60547 -0.0244141
l-0.658203 10.6084l51.4473 3.19531c38.7422 2.44434 109.517 -24.9043 169.633 -81.791zM135.562 116.342c85.2998 30.9219 131.322 127.837 131.955 218.38c1.00684 144.321 -79.5605 217.099 -133.035 247.133c-2.13086 -158.371 -1.78711 -305.845 1.08008 -465.513z
" />
    <glyph glyph-name="e" unicode="e" horiz-adv-x="381" 
d="M249.357 156.265l6.58984 51.1172l102.241 -13.1904l-6.59277 -51.123c-15.248 -118.19 -86.125 -162.76 -147.37 -165.058c-1.85059 -0.0683594 -3.72559 -0.102539 -5.61035 -0.102539c-60.416 0 -137.071 37.0488 -171.543 206.51
c-18.2324 89.6055 -17.3535 198.248 2.41016 298.074c14.6729 74.0879 65.3447 203.628 162.19 219.17c51.5693 8.28613 100.43 -13.3281 134.027 -59.2773c49.8271 -68.1523 55.7422 -173.015 14.3779 -255.001c-24.1328 -47.834 -83.415 -124.773 -218.621 -141.003
c1.71289 -14.2412 3.92676 -28.085 6.63672 -41.4082c7.62402 -37.4561 29.7246 -123.964 71.1572 -123.964c0.373047 0 0.746094 0.00976562 1.11914 0.0195312c24.7168 0.927734 43.0273 29.0518 48.9873 75.2363zM130.614 462.467
c-7.30469 -36.8916 -11.6738 -75.0283 -13.0879 -112.578c62.6738 9.45996 107.347 38.0107 130.513 83.9248c27.167 53.8525 17.4131 116.306 -5.56152 147.724c-11.8164 16.1611 -22.8125 18.7969 -29.4844 18.7969c-2.15039 0 -3.84863 -0.275391 -4.98242 -0.457031
c-29.1895 -4.68359 -65.5752 -77.7109 -77.3965 -137.41z" />
    <glyph glyph-name="e" unicode="&#xeb;" horiz-adv-x="381" 
d="M249.357 156.265l6.58984 51.1172l102.241 -13.1904l-6.59277 -51.123c-15.248 -118.19 -86.125 -162.76 -147.37 -165.058c-1.85059 -0.0683594 -3.72559 -0.102539 -5.61035 -0.102539c-60.416 0 -137.071 37.0488 -171.543 206.51
c-18.2324 89.6055 -17.3535 198.248 2.41016 298.074c14.6729 74.0879 65.3447 203.628 162.19 219.17c51.5693 8.28613 100.43 -13.3281 134.027 -59.2773c49.8271 -68.1523 55.7422 -173.015 14.3779 -255.001c-24.1328 -47.834 -83.415 -124.773 -218.621 -141.003
c1.71289 -14.2412 3.92676 -28.085 6.63672 -41.4082c7.62402 -37.4561 29.7246 -123.964 71.1572 -123.964c0.373047 0 0.746094 0.00976562 1.11914 0.0195312c24.7168 0.927734 43.0273 29.0518 48.9873 75.2363zM130.614 462.467
c-7.30469 -36.8916 -11.6738 -75.0283 -13.0879 -112.578c62.6738 9.45996 107.347 38.0107 130.513 83.9248c27.167 53.8525 17.4131 116.306 -5.56152 147.724c-11.8164 16.1611 -22.8125 18.7969 -29.4844 18.7969c-2.15039 0 -3.84863 -0.275391 -4.98242 -0.457031
c-29.1895 -4.68359 -65.5752 -77.7109 -77.3965 -137.41z" />
    <glyph glyph-name="e" unicode="&#xea;" horiz-adv-x="381" 
d="M249.357 156.265l6.58984 51.1172l102.241 -13.1904l-6.59277 -51.123c-15.248 -118.19 -86.125 -162.76 -147.37 -165.058c-1.85059 -0.0683594 -3.72559 -0.102539 -5.61035 -0.102539c-60.416 0 -137.071 37.0488 -171.543 206.51
c-18.2324 89.6055 -17.3535 198.248 2.41016 298.074c14.6729 74.0879 65.3447 203.628 162.19 219.17c51.5693 8.28613 100.43 -13.3281 134.027 -59.2773c49.8271 -68.1523 55.7422 -173.015 14.3779 -255.001c-24.1328 -47.834 -83.415 -124.773 -218.621 -141.003
c1.71289 -14.2412 3.92676 -28.085 6.63672 -41.4082c7.62402 -37.4561 29.7246 -123.964 71.1572 -123.964c0.373047 0 0.746094 0.00976562 1.11914 0.0195312c24.7168 0.927734 43.0273 29.0518 48.9873 75.2363zM130.614 462.467
c-7.30469 -36.8916 -11.6738 -75.0283 -13.0879 -112.578c62.6738 9.45996 107.347 38.0107 130.513 83.9248c27.167 53.8525 17.4131 116.306 -5.56152 147.724c-11.8164 16.1611 -22.8125 18.7969 -29.4844 18.7969c-2.15039 0 -3.84863 -0.275391 -4.98242 -0.457031
c-29.1895 -4.68359 -65.5752 -77.7109 -77.3965 -137.41z" />
    <glyph glyph-name="e" unicode="&#xe9;" horiz-adv-x="381" 
d="M249.357 156.265l6.58984 51.1172l102.241 -13.1904l-6.59277 -51.123c-15.248 -118.19 -86.125 -162.76 -147.37 -165.058c-1.85059 -0.0683594 -3.72559 -0.102539 -5.61035 -0.102539c-60.416 0 -137.071 37.0488 -171.543 206.51
c-18.2324 89.6055 -17.3535 198.248 2.41016 298.074c14.6729 74.0879 65.3447 203.628 162.19 219.17c51.5693 8.28613 100.43 -13.3281 134.027 -59.2773c49.8271 -68.1523 55.7422 -173.015 14.3779 -255.001c-24.1328 -47.834 -83.415 -124.773 -218.621 -141.003
c1.71289 -14.2412 3.92676 -28.085 6.63672 -41.4082c7.62402 -37.4561 29.7246 -123.964 71.1572 -123.964c0.373047 0 0.746094 0.00976562 1.11914 0.0195312c24.7168 0.927734 43.0273 29.0518 48.9873 75.2363zM130.614 462.467
c-7.30469 -36.8916 -11.6738 -75.0283 -13.0879 -112.578c62.6738 9.45996 107.347 38.0107 130.513 83.9248c27.167 53.8525 17.4131 116.306 -5.56152 147.724c-11.8164 16.1611 -22.8125 18.7969 -29.4844 18.7969c-2.15039 0 -3.84863 -0.275391 -4.98242 -0.457031
c-29.1895 -4.68359 -65.5752 -77.7109 -77.3965 -137.41z" />
    <glyph glyph-name="f" unicode="f" horiz-adv-x="287" 
d="M158.599 564.487c-19.1992 -18.5566 -29.876 -43.4541 -30.0771 -70.1152c-0.638672 -85.8789 -0.555664 -169.485 0.263672 -254.923c27.167 -0.186523 58.8008 -0.269531 74.5732 0.319336l51.5107 1.93945l3.86816 -103.017l-51.5107 -1.93457
c-10.667 -0.402344 -26.6162 -0.535156 -43.8467 -0.535156c-10.918 0 -22.3262 0.0537109 -33.2637 0.126953c0.436523 -26.9854 0.942383 -54.2949 1.52637 -82.0654l1.08008 -51.5303l-103.071 -2.16016l-1.08008 51.5352
c-3.24512 154.733 -4.24121 295.506 -3.1416 443.014c0.407227 54.5791 22.2529 105.535 61.5205 143.482c39.2529 37.9326 90.9209 57.917 145.437 56.5771l1.73242 -0.0537109l51.5107 -1.94434l-3.8877 -103.017l-51.9873 1.9541
c-26.71 0.677734 -51.9717 -9.11133 -71.1562 -27.6533z" />
    <glyph glyph-name="g" unicode="g" horiz-adv-x="377" 
d="M347.117 601.772c3.35742 -154.169 5.58008 -256.025 5.58984 -380.873c0 -136.369 -78.0547 -205.018 -155.412 -212.562c-4.60449 -0.451172 -9.28809 -0.676758 -14.0059 -0.676758c-67.1221 -0.00488281 -143.32 45.9492 -164.326 152.584l-9.96094 50.5732
l101.146 19.9258l9.96094 -50.5732c10.1123 -51.3584 40.9805 -71.7754 67.1699 -69.2324c31.0205 3.0293 62.3252 38.2031 62.3252 109.959c0 35.7529 -0.186523 69.6406 -0.530273 103.459c-27.3145 -23.0674 -56.7832 -29.8516 -81.8887 -29.8516
c-47.2061 0 -90.1748 29.415 -117.892 80.6953c-32.4346 60.0234 -43.3867 153.826 5.26172 228.101c31.7178 48.4277 98.6484 103.571 237.541 92.4473l52.959 1.14355zM167.189 397.592c12.9209 0 53.3223 15.0752 67.7891 195.572
c-37.0195 -3.18555 -73.7979 -15.2275 -94.1807 -46.3457c-24.123 -36.833 -18.6641 -89.5566 -0.804688 -122.604c9.44531 -17.4814 20.8291 -26.6221 27.1963 -26.6221z" />
    <glyph glyph-name="h" unicode="h" horiz-adv-x="421" 
d="M392.129 51.5879l1.23633 -51.5215l-103.061 -2.47461l-1.2373 51.5303c-2.28809 95.4717 -3.59863 187.688 -3.9668 279.537c-36.293 0.25 -82.875 0.829102 -122.923 1.3252c-10.5352 0.132812 -20.6328 0.260742 -29.9746 0.369141
c0.358398 -91.5938 1.66406 -183.541 3.94727 -278.758l1.23242 -51.5303l-103.061 -2.47461l-1.2373 51.5303c-4.87012 203.015 -5.37109 391.312 -1.58105 592.598l0.97168 51.54l103.071 -1.94434l-0.97168 -51.5352
c-1.32031 -69.9688 -2.10059 -138.348 -2.37012 -206.333c9.71484 -0.118164 20.2549 -0.250977 31.2559 -0.388672c39.7041 -0.496094 85.8643 -1.08008 121.627 -1.3252c0.264648 69.1836 1.05957 138.765 2.39941 209.98l0.97168 51.5352l103.071 -1.94434
l-0.97168 -51.5352c-3.76562 -199.784 -3.26465 -386.683 1.57031 -588.181z" />
    <glyph glyph-name="i" unicode="i" horiz-adv-x="159" 
d="M130.346 576.918l-0.648438 -51.54l-103.086 1.30566l0.65332 51.54c0.264648 20.8877 0.574219 41.9922 0.922852 63.3613l0.839844 51.54l103.076 -1.68359l-0.839844 -51.5352c-0.348633 -21.2412 -0.65332 -42.2275 -0.917969 -62.9883zM131.553 102.191
l2.1543 -102.295l-103.071 -2.15039l-2.15039 102.236c-2.44434 113.959 -3.18555 148.352 -1.78125 295.182l0.491211 51.54l103.086 -0.981445l-0.491211 -51.5449c-1.38477 -145.229 -0.716797 -176.313 1.7627 -291.986z" />
    <glyph glyph-name="i" unicode="&#xef;" horiz-adv-x="159" 
d="M130.346 576.918l-0.648438 -51.54l-103.086 1.30566l0.65332 51.54c0.264648 20.8877 0.574219 41.9922 0.922852 63.3613l0.839844 51.54l103.076 -1.68359l-0.839844 -51.5352c-0.348633 -21.2412 -0.65332 -42.2275 -0.917969 -62.9883zM131.553 102.191
l2.1543 -102.295l-103.071 -2.15039l-2.15039 102.236c-2.44434 113.959 -3.18555 148.352 -1.78125 295.182l0.491211 51.54l103.086 -0.981445l-0.491211 -51.5449c-1.38477 -145.229 -0.716797 -176.313 1.7627 -291.986z" />
    <glyph glyph-name="i" unicode="&#xee;" horiz-adv-x="159" 
d="M130.346 576.918l-0.648438 -51.54l-103.086 1.30566l0.65332 51.54c0.264648 20.8877 0.574219 41.9922 0.922852 63.3613l0.839844 51.54l103.076 -1.68359l-0.839844 -51.5352c-0.348633 -21.2412 -0.65332 -42.2275 -0.917969 -62.9883zM131.553 102.191
l2.1543 -102.295l-103.071 -2.15039l-2.15039 102.236c-2.44434 113.959 -3.18555 148.352 -1.78125 295.182l0.491211 51.54l103.086 -0.981445l-0.491211 -51.5449c-1.38477 -145.229 -0.716797 -176.313 1.7627 -291.986z" />
    <glyph glyph-name="i" unicode="&#xed;" horiz-adv-x="159" 
d="M130.346 576.918l-0.648438 -51.54l-103.086 1.30566l0.65332 51.54c0.264648 20.8877 0.574219 41.9922 0.922852 63.3613l0.839844 51.54l103.076 -1.68359l-0.839844 -51.5352c-0.348633 -21.2412 -0.65332 -42.2275 -0.917969 -62.9883zM131.553 102.191
l2.1543 -102.295l-103.071 -2.15039l-2.15039 102.236c-2.44434 113.959 -3.18555 148.352 -1.78125 295.182l0.491211 51.54l103.086 -0.981445l-0.491211 -51.5449c-1.38477 -145.229 -0.716797 -176.313 1.7627 -291.986z" />
    <glyph glyph-name="j" unicode="j" horiz-adv-x="307" 
d="M280.03 641.663c1.97363 -110.41 0.763672 -191.36 -0.404297 -269.655c-0.825195 -55.1533 -1.60059 -107.248 -1.13867 -165.244c1.09961 -137.602 -65.4629 -204.399 -127.769 -208.233c-2.12598 -0.12793 -4.2666 -0.196289 -6.41211 -0.196289
c-56.7148 0 -118.991 46.4697 -130.552 178.215c-12.8564 146.486 45.1396 305.78 164.224 339.918c0.0341797 22.9209 -0.0537109 47.0244 -0.313477 72.7188c-15.5127 0.147461 -30.3281 0.407227 -43.499 0.637695c-15.292 0.269531 -28.502 0.504883 -38.7129 0.504883
h-51.5449v103.091h51.5449c11.1143 0 24.7471 -0.235352 40.5293 -0.515625c25.3359 -0.446289 56.8623 -0.996094 86.9502 -0.623047l16.2588 0.206055l39.916 0.716797zM176.545 373.56c0.137695 9.04785 0.268555 18.1309 0.401367 27.291
c-31.4912 -27.5596 -50.0723 -80.5039 -57.5439 -129.757c-14.501 -95.585 10.8545 -162.25 24.8408 -169.569c8.72363 3.54883 31.708 34.3828 31.1533 104.426c-0.47168 59.1836 0.313477 111.853 1.14844 167.609z" />
    <glyph glyph-name="k" unicode="k" horiz-adv-x="347" 
d="M338.204 634.736c-2.60156 -127.936 -63.2734 -218.854 -169.162 -257.998c71.2354 -104.907 149.746 -236.273 151.989 -325.814l1.29102 -51.5303l-103.061 -2.57715l-1.29102 51.5303c-0.731445 28.9834 -17.9277 85.4521 -85.2363 194.792
c0.574219 -62.998 1.53125 -126.59 2.89062 -191.714l1.0752 -51.5303l-103.071 -2.15039l-1.0752 51.5352c-4.23145 202.931 -4.66797 391.14 -1.37402 592.309l0.844727 51.54l103.076 -1.69336l-0.844727 -51.5352c-0.927734 -56.4541 -1.54102 -111.867 -1.875 -166.888
c67.2588 24.2217 101.014 78.207 102.757 163.826l1.0459 51.5352l103.071 -2.10156z" />
    <glyph glyph-name="l" unicode="l" horiz-adv-x="252" 
d="M256.016 103.369l2.63965 -103.058l-51.5303 -1.32031c-5.12988 -0.132812 -12.2969 -0.186523 -20.6816 -0.186523c-19.7588 0 -46.2871 0.290039 -68.9326 0.544922c-15.0117 0.166992 -27.7217 0.30957 -34.1133 0.30957h-51.5449v55.4336
c-2.40039 114.627 -1.94922 223.604 -1.47266 338.962c0.324219 78.3682 0.658203 159.402 0.103516 246.356l-0.329102 51.5449l103.091 0.658203l0.329102 -51.54c0.55957 -87.499 0.220703 -168.803 -0.103516 -247.441
c-0.412109 -99.4287 -0.794922 -194.095 0.65332 -291.368c27.0488 -0.285156 57.5635 -0.544922 70.3613 -0.220703z" />
    <glyph glyph-name="m" unicode="m" horiz-adv-x="595" 
d="M569.797 203.484c-0.72168 -52.8262 -1.39941 -102.719 -0.614258 -149.409l0.864258 -51.54l-103.076 -1.73242l-0.864258 51.5352c-0.80957 48.2705 -0.0878906 101.288 0.614258 152.559c1.47754 108.122 3.00879 219.926 -8.95996 302.697
c-9.41113 65.084 -26.5488 104.567 -45.8564 105.618c-9.72461 0.491211 -12.5371 -2.14941 -14.5986 -4.10352c-23.0674 -21.8457 -34.7607 -100.435 -34.7607 -233.573v-51.5449h-0.0195312c0.0244141 -35.002 -0.794922 -71.457 -1.6543 -109.007
c-1.19336 -52.1982 -2.42578 -106.179 -1.50293 -160.91l0.864258 -51.54l-103.076 -1.73242l-0.864258 51.5352c-0.952148 56.7783 0.304688 111.794 1.51758 164.998c3.40234 149.157 6.61816 290.038 -49.4482 344.519
c-17.1279 16.6318 -41.3145 26.5039 -73.2432 29.8867c-2.07129 -169.015 -3.24414 -349.713 -0.0537109 -537.52l0.874023 -51.54l-103.076 -1.74805l-0.874023 51.5352c-3.53906 208.449 -1.75195 407.875 0.707031 592.328l0.6875 51.54l53.7393 -0.716797
c84.2002 4.15332 147.341 -15.3994 193.073 -59.8359c3.07812 -2.99414 6.01855 -6.08691 8.88086 -9.24805c9.70996 24.29 22.0312 42.9199 37.3281 57.4111c24.2607 22.9795 55.7871 34.1523 91.0781 32.1982c76.4395 -4.14355 124.312 -69.3506 142.305 -193.806
c13.127 -90.8076 11.5459 -206.735 10.0098 -318.854z" />
    <glyph glyph-name="n" unicode="n" horiz-adv-x="407" 
d="M381.836 203.357c-0.859375 -52.748 -1.66797 -102.576 -0.725586 -149.129l1.02637 -51.5352l-103.071 -2.06152l-1.03125 51.5352c-0.966797 48.4229 -0.107422 101.515 0.727539 152.863c2.76855 170.703 6.56836 404.482 -73.877 408.154
c-18.1934 0.849609 -26.1611 -4.33398 -31.5713 -9.50293c-24.2217 -23.1416 -37.6084 -88.6582 -39.8711 -194.939c-0.697266 -114.381 -0.452148 -232.935 1.75684 -354.464l0.9375 -51.5352l-103.071 -1.875l-0.9375 51.54
c-1.67871 92.3057 -2.23828 182.829 -2.11035 271.089h-0.0146484v51.5449c0 12.209 0.123047 23.9463 0.353516 35.3252c0.496094 80.3955 1.44824 158.715 2.52832 234.477l0.736328 51.54l90.042 -1.28613c24.4277 15.4688 53.21 22.5674 85.9189 21.0703
c85.0596 -3.88281 138.971 -68.6387 160.241 -192.475c15.7236 -91.5342 13.8389 -207.85 12.0127 -320.336z" />
    <glyph glyph-name="o" unicode="o" horiz-adv-x="411" 
d="M396.951 390.206c4.8457 -98.3975 -9.53809 -195.506 -39.4688 -266.427c-3.47559 -8.2373 -7.16699 -16.21 -10.9619 -23.6816c-14.1875 -27.957 -30.5049 -50.3965 -48.5068 -66.6797c-25.7188 -23.2734 -56.6455 -35.3887 -88.5547 -35.3887
c-13.3086 0 -26.7842 2.11133 -40.1318 6.39648c-41.2803 13.25 -77.4893 45.3359 -104.72 92.7871c-25.7334 44.835 -42.8018 102.124 -48.0693 161.322c-23.1367 260.058 71.0098 433.107 171.503 444.3c38.5898 4.31055 75.1963 -7.20117 105.814 -33.2783
c90.6357 -77.1709 102.089 -258.885 103.096 -279.351zM262.502 163.861c24.1182 57.1514 35.5967 137.803 31.4824 221.276c-3.71094 75.3447 -28.4375 173.129 -66.9639 205.932c-7.72168 6.57812 -14.8789 9.5625 -23.2539 9.5625
c-1.4043 0 -2.83789 -0.0878906 -4.31543 -0.25c-5.04199 -1.1582 -31.5508 -19.248 -54.4268 -80.4492c-25.1299 -67.2246 -34.29 -156.815 -25.8027 -252.258c3.91699 -44.0098 16.5967 -87.4404 34.7998 -119.148c13.8193 -24.084 30.8828 -40.834 46.8174 -45.9492
c7.27539 -2.33203 16.3027 -3.30371 28.001 7.27539c5.92969 5.36523 15.2129 16.126 25.7578 36.9014v0.00976562c2.70508 5.32617 5.36621 11.0742 7.9043 17.0977z" />
    <glyph glyph-name="o" unicode="&#xf6;" horiz-adv-x="411" 
d="M396.951 390.206c4.8457 -98.3975 -9.53809 -195.506 -39.4688 -266.427c-3.47559 -8.2373 -7.16699 -16.21 -10.9619 -23.6816c-14.1875 -27.957 -30.5049 -50.3965 -48.5068 -66.6797c-25.7188 -23.2734 -56.6455 -35.3887 -88.5547 -35.3887
c-13.3086 0 -26.7842 2.11133 -40.1318 6.39648c-41.2803 13.25 -77.4893 45.3359 -104.72 92.7871c-25.7334 44.835 -42.8018 102.124 -48.0693 161.322c-23.1367 260.058 71.0098 433.107 171.503 444.3c38.5898 4.31055 75.1963 -7.20117 105.814 -33.2783
c90.6357 -77.1709 102.089 -258.885 103.096 -279.351zM262.502 163.861c24.1182 57.1514 35.5967 137.803 31.4824 221.276c-3.71094 75.3447 -28.4375 173.129 -66.9639 205.932c-7.72168 6.57812 -14.8789 9.5625 -23.2539 9.5625
c-1.4043 0 -2.83789 -0.0878906 -4.31543 -0.25c-5.04199 -1.1582 -31.5508 -19.248 -54.4268 -80.4492c-25.1299 -67.2246 -34.29 -156.815 -25.8027 -252.258c3.91699 -44.0098 16.5967 -87.4404 34.7998 -119.148c13.8193 -24.084 30.8828 -40.834 46.8174 -45.9492
c7.27539 -2.33203 16.3027 -3.30371 28.001 7.27539c5.92969 5.36523 15.2129 16.126 25.7578 36.9014v0.00976562c2.70508 5.32617 5.36621 11.0742 7.9043 17.0977z" />
    <glyph glyph-name="o" unicode="&#xf5;" horiz-adv-x="411" 
d="M396.951 390.206c4.8457 -98.3975 -9.53809 -195.506 -39.4688 -266.427c-3.47559 -8.2373 -7.16699 -16.21 -10.9619 -23.6816c-14.1875 -27.957 -30.5049 -50.3965 -48.5068 -66.6797c-25.7188 -23.2734 -56.6455 -35.3887 -88.5547 -35.3887
c-13.3086 0 -26.7842 2.11133 -40.1318 6.39648c-41.2803 13.25 -77.4893 45.3359 -104.72 92.7871c-25.7334 44.835 -42.8018 102.124 -48.0693 161.322c-23.1367 260.058 71.0098 433.107 171.503 444.3c38.5898 4.31055 75.1963 -7.20117 105.814 -33.2783
c90.6357 -77.1709 102.089 -258.885 103.096 -279.351zM262.502 163.861c24.1182 57.1514 35.5967 137.803 31.4824 221.276c-3.71094 75.3447 -28.4375 173.129 -66.9639 205.932c-7.72168 6.57812 -14.8789 9.5625 -23.2539 9.5625
c-1.4043 0 -2.83789 -0.0878906 -4.31543 -0.25c-5.04199 -1.1582 -31.5508 -19.248 -54.4268 -80.4492c-25.1299 -67.2246 -34.29 -156.815 -25.8027 -252.258c3.91699 -44.0098 16.5967 -87.4404 34.7998 -119.148c13.8193 -24.084 30.8828 -40.834 46.8174 -45.9492
c7.27539 -2.33203 16.3027 -3.30371 28.001 7.27539c5.92969 5.36523 15.2129 16.126 25.7578 36.9014v0.00976562c2.70508 5.32617 5.36621 11.0742 7.9043 17.0977z" />
    <glyph glyph-name="o" unicode="&#xf4;" horiz-adv-x="411" 
d="M396.951 390.206c4.8457 -98.3975 -9.53809 -195.506 -39.4688 -266.427c-3.47559 -8.2373 -7.16699 -16.21 -10.9619 -23.6816c-14.1875 -27.957 -30.5049 -50.3965 -48.5068 -66.6797c-25.7188 -23.2734 -56.6455 -35.3887 -88.5547 -35.3887
c-13.3086 0 -26.7842 2.11133 -40.1318 6.39648c-41.2803 13.25 -77.4893 45.3359 -104.72 92.7871c-25.7334 44.835 -42.8018 102.124 -48.0693 161.322c-23.1367 260.058 71.0098 433.107 171.503 444.3c38.5898 4.31055 75.1963 -7.20117 105.814 -33.2783
c90.6357 -77.1709 102.089 -258.885 103.096 -279.351zM262.502 163.861c24.1182 57.1514 35.5967 137.803 31.4824 221.276c-3.71094 75.3447 -28.4375 173.129 -66.9639 205.932c-7.72168 6.57812 -14.8789 9.5625 -23.2539 9.5625
c-1.4043 0 -2.83789 -0.0878906 -4.31543 -0.25c-5.04199 -1.1582 -31.5508 -19.248 -54.4268 -80.4492c-25.1299 -67.2246 -34.29 -156.815 -25.8027 -252.258c3.91699 -44.0098 16.5967 -87.4404 34.7998 -119.148c13.8193 -24.084 30.8828 -40.834 46.8174 -45.9492
c7.27539 -2.33203 16.3027 -3.30371 28.001 7.27539c5.92969 5.36523 15.2129 16.126 25.7578 36.9014v0.00976562c2.70508 5.32617 5.36621 11.0742 7.9043 17.0977z" />
    <glyph glyph-name="o" unicode="&#xf3;" horiz-adv-x="411" 
d="M396.951 390.206c4.8457 -98.3975 -9.53809 -195.506 -39.4688 -266.427c-3.47559 -8.2373 -7.16699 -16.21 -10.9619 -23.6816c-14.1875 -27.957 -30.5049 -50.3965 -48.5068 -66.6797c-25.7188 -23.2734 -56.6455 -35.3887 -88.5547 -35.3887
c-13.3086 0 -26.7842 2.11133 -40.1318 6.39648c-41.2803 13.25 -77.4893 45.3359 -104.72 92.7871c-25.7334 44.835 -42.8018 102.124 -48.0693 161.322c-23.1367 260.058 71.0098 433.107 171.503 444.3c38.5898 4.31055 75.1963 -7.20117 105.814 -33.2783
c90.6357 -77.1709 102.089 -258.885 103.096 -279.351zM262.502 163.861c24.1182 57.1514 35.5967 137.803 31.4824 221.276c-3.71094 75.3447 -28.4375 173.129 -66.9639 205.932c-7.72168 6.57812 -14.8789 9.5625 -23.2539 9.5625
c-1.4043 0 -2.83789 -0.0878906 -4.31543 -0.25c-5.04199 -1.1582 -31.5508 -19.248 -54.4268 -80.4492c-25.1299 -67.2246 -34.29 -156.815 -25.8027 -252.258c3.91699 -44.0098 16.5967 -87.4404 34.7998 -119.148c13.8193 -24.084 30.8828 -40.834 46.8174 -45.9492
c7.27539 -2.33203 16.3027 -3.30371 28.001 7.27539c5.92969 5.36523 15.2129 16.126 25.7578 36.9014v0.00976562c2.70508 5.32617 5.36621 11.0742 7.9043 17.0977z" />
    <glyph glyph-name="p" unicode="p" horiz-adv-x="405" 
d="M408.089 526.752c4.02051 -41.8154 -15.1445 -86.3643 -56.9648 -132.387c-54.1865 -59.6553 -149.339 -121.951 -217.438 -146.796c0.569336 -64.7061 1.54102 -130.012 2.93555 -196.938l1.0752 -51.5352l-103.071 -2.15039l-1.0752 51.5352
c-4.23145 203.112 -4.66797 391.498 -1.37891 592.834v56.8662h51.5449c29.665 0 100.97 -7.45215 165.99 -27.4473c123.095 -37.8535 154.071 -99.1924 158.382 -143.982zM217.499 412.656c67.0527 50.377 89.3457 89.9297 87.9707 104.22
c-1.31543 13.7207 -24.6484 36.4395 -86.0605 55.3242c-29.1455 8.95898 -59.6309 14.7861 -84.8779 18.3301c-1.0459 -78.0195 -1.51758 -154.419 -1.40918 -230.828c24.3584 12.4688 54.3135 30.3672 84.377 52.9541z" />
    <glyph glyph-name="q" unicode="q" horiz-adv-x="443" 
d="M431.691 424.663c5.7041 -88.874 -11.3018 -176.693 -46.6523 -240.938c-4.09863 -7.44238 -8.44336 -14.6387 -12.915 -21.3936v-0.00488281c-16.1904 -24.457 -34.5801 -44.0098 -54.6582 -58.2021l35.9688 -0.947266l-2.71973 -103.056l-51.5303 1.35938
c-34.5791 0.908203 -65.0596 -1.73828 -97.3125 -4.53125c-12.7783 -1.10938 -25.9834 -2.25781 -39.9697 -3.23926l-51.418 -3.6084l-7.22656 102.835l40.3037 2.83301c-27.6826 14.5996 -52.9102 36.3223 -73.3516 63.6318
c-30.5244 40.7842 -50.8037 93.1055 -57.0918 147.326c-15.2178 131.092 12.1504 250.441 75.0654 327.455c33.4404 40.9268 74.2793 65.3789 115 68.8545c47.4902 4.08398 91.75 -10.29 127.999 -41.4922c66.6406 -57.3623 95.791 -163.457 100.509 -236.882z
M294.718 233.439c26.1455 47.5049 38.5771 114.801 34.0898 184.617c-3.70117 57.6084 -27.1719 132.903 -64.8789 165.357c-13.5439 11.6592 -27.9619 17.2207 -44.8936 17.2207c-2.3125 0 -4.67383 -0.103516 -7.08398 -0.30957
c-9.07715 -0.780273 -26.0381 -9.45508 -43.9365 -31.3691c-44.7119 -54.7217 -64.3389 -148.313 -52.498 -250.349c4.16797 -35.875 17.7314 -71.3877 37.2256 -97.4307c16.126 -21.5557 36.4736 -36.2432 57.2881 -41.3682
c17.4912 -4.30078 33.4707 -1.57129 47.457 8.12891c9.62207 6.67188 19.5332 17.4912 28.6641 31.291v-0.00488281c2.93555 4.4375 5.8125 9.21387 8.56641 14.2158z" />
    <glyph glyph-name="r" unicode="r" horiz-adv-x="415" 
d="M351.055 394.138c-21.3643 -23.5146 -49.1016 -47.4346 -79.0225 -69.3096c35.1094 -54.1865 105.564 -167.036 105.564 -266.71v-51.5449h-103.091v51.5449c0 70.4844 -62.0215 169.024 -89.9199 212.077c-17.8643 -9.29785 -35.1045 -17.0742 -50.9023 -22.8428
c0.569336 -64.7607 1.54102 -130.115 2.93555 -197.095l1.07031 -51.5352l-103.065 -2.14551l-1.0752 51.5303c-4.23145 203.24 -4.66797 391.738 -1.37891 593.206v56.8711h51.5449c29.6709 0 100.976 -7.45703 166.001 -27.4668
c123.085 -37.8779 154.062 -99.2412 158.372 -144.051c4.02539 -41.8496 -15.1689 -86.4385 -57.0332 -132.529zM217.487 412.475c67.0625 50.416 89.3555 90.0137 87.9805 104.333c-1.31543 13.7402 -24.6533 36.4844 -86.0703 55.3848
c-29.1406 8.96387 -59.626 14.7959 -84.8682 18.3398c-1.05078 -78.0889 -1.52246 -154.558 -1.41406 -231.036c24.3633 12.4736 54.3184 30.3818 84.3721 52.9785z" />
    <glyph glyph-name="s" unicode="s" horiz-adv-x="395" 
d="M387.623 184.585c4.85059 -33.8877 -3.71484 -69.7666 -24.1318 -101.037c-33.0137 -50.5684 -95.2607 -80.1016 -163.192 -80.1064c-15.1494 0 -30.5684 1.46777 -46.0225 4.49707c-61.2109 12.0078 -145.156 76.3555 -125.505 204.443l7.82031 50.9512
l101.897 -15.6357l-7.81543 -50.9463c-11.6543 -75.9434 41.1865 -87.2051 43.4443 -87.6465c41.9287 -8.21289 86.2236 5.0166 103.052 30.7988c6.51953 9.99023 9.66113 21.2373 8.39453 30.0781c-7.59473 53.0771 -72.9785 118.402 -130.67 176.04
c-45.3994 45.3594 -88.2803 88.2061 -115.767 133.521c-47.7012 78.6484 -28.0205 136.953 -3.1123 172.023c57.9512 81.5986 169.367 52.7969 258.889 29.6455c7.66797 -1.9834 15.2529 -3.94727 22.7148 -5.81738l49.999 -12.5381l-25.0703 -99.9932l-49.999 12.5381
c-7.69727 1.92969 -15.5322 3.95703 -23.4453 6.00391c-52.6348 13.5977 -132.182 34.167 -149.034 10.4658c-5.74805 -8.09473 -15.3701 -21.6387 7.20703 -58.8691c21.0205 -34.6533 59.625 -73.2188 100.488 -114.048c72.4629 -72.3994 147.39 -147.263 159.858 -234.369
z" />
    <glyph glyph-name="t" unicode="t" horiz-adv-x="328" 
d="M284.257 692.919l51.5303 -1.13379l-2.27734 -103.065l-51.5352 1.13867c-11.7373 0.259766 -37.6572 0.579102 -68.3096 0.893555c-2.57715 -181.837 -1.93848 -354.308 1.9834 -539.306l1.08984 -51.5352l-103.065 -2.17969l-1.09473 51.5303
c-3.94238 186.059 -4.59082 359.54 -1.99902 542.413c-33.0332 0.259766 -59.5859 0.431641 -67.0332 0.431641h-51.5449v103.091h51.5449c17.2451 0 200.884 -1.39453 240.711 -2.27832z" />
    <glyph glyph-name="u" unicode="u" horiz-adv-x="422" 
d="M393.515 699.968l-0.722656 -81.2871c-0.486328 -62.9492 -1.10938 -139.791 -5.1543 -216.927c-0.12793 -115.437 1.03027 -230.323 3.50977 -350.34l1.06543 -51.5352l-103.071 -2.13086l-0.65332 31.4971c-20.5596 -18.6494 -46.1016 -30.4414 -77.9072 -30.4414
c-36.9902 0 -70.8281 14.5703 -97.8672 42.1299c-92.2656 94.0332 -95.7021 327.356 -91.6865 538.667c0.500977 26.3809 0.932617 49.1641 0.569336 62.6543l-1.39453 51.5254l103.061 2.7832l1.39453 -51.5254c0.431641 -15.8613 0 -38.6055 -0.549805 -67.3975
c-2.04688 -107.621 -7.47656 -393.491 62.1982 -464.511c9.71484 -9.90625 17.7266 -11.2363 24.2803 -11.2363c10.5107 0 41.9824 29.0859 61.0645 161.916c6.30859 43.9219 10.3047 92.0654 12.9014 140.543c0.0986328 80.1748 0.810547 160.63 2.15039 243.25
l0.839844 51.54l2.87207 -0.0488281l0.0146484 1.83594z" />
    <glyph glyph-name="u" unicode="&#xfc;" horiz-adv-x="422" 
d="M393.515 699.968l-0.722656 -81.2871c-0.486328 -62.9492 -1.10938 -139.791 -5.1543 -216.927c-0.12793 -115.437 1.03027 -230.323 3.50977 -350.34l1.06543 -51.5352l-103.071 -2.13086l-0.65332 31.4971c-20.5596 -18.6494 -46.1016 -30.4414 -77.9072 -30.4414
c-36.9902 0 -70.8281 14.5703 -97.8672 42.1299c-92.2656 94.0332 -95.7021 327.356 -91.6865 538.667c0.500977 26.3809 0.932617 49.1641 0.569336 62.6543l-1.39453 51.5254l103.061 2.7832l1.39453 -51.5254c0.431641 -15.8613 0 -38.6055 -0.549805 -67.3975
c-2.04688 -107.621 -7.47656 -393.491 62.1982 -464.511c9.71484 -9.90625 17.7266 -11.2363 24.2803 -11.2363c10.5107 0 41.9824 29.0859 61.0645 161.916c6.30859 43.9219 10.3047 92.0654 12.9014 140.543c0.0986328 80.1748 0.810547 160.63 2.15039 243.25
l0.839844 51.54l2.87207 -0.0488281l0.0146484 1.83594z" />
    <glyph glyph-name="u" unicode="&#xfb;" horiz-adv-x="422" 
d="M393.515 699.968l-0.722656 -81.2871c-0.486328 -62.9492 -1.10938 -139.791 -5.1543 -216.927c-0.12793 -115.437 1.03027 -230.323 3.50977 -350.34l1.06543 -51.5352l-103.071 -2.13086l-0.65332 31.4971c-20.5596 -18.6494 -46.1016 -30.4414 -77.9072 -30.4414
c-36.9902 0 -70.8281 14.5703 -97.8672 42.1299c-92.2656 94.0332 -95.7021 327.356 -91.6865 538.667c0.500977 26.3809 0.932617 49.1641 0.569336 62.6543l-1.39453 51.5254l103.061 2.7832l1.39453 -51.5254c0.431641 -15.8613 0 -38.6055 -0.549805 -67.3975
c-2.04688 -107.621 -7.47656 -393.491 62.1982 -464.511c9.71484 -9.90625 17.7266 -11.2363 24.2803 -11.2363c10.5107 0 41.9824 29.0859 61.0645 161.916c6.30859 43.9219 10.3047 92.0654 12.9014 140.543c0.0986328 80.1748 0.810547 160.63 2.15039 243.25
l0.839844 51.54l2.87207 -0.0488281l0.0146484 1.83594z" />
    <glyph glyph-name="u" unicode="&#xfa;" horiz-adv-x="422" 
d="M393.515 699.968l-0.722656 -81.2871c-0.486328 -62.9492 -1.10938 -139.791 -5.1543 -216.927c-0.12793 -115.437 1.03027 -230.323 3.50977 -350.34l1.06543 -51.5352l-103.071 -2.13086l-0.65332 31.4971c-20.5596 -18.6494 -46.1016 -30.4414 -77.9072 -30.4414
c-36.9902 0 -70.8281 14.5703 -97.8672 42.1299c-92.2656 94.0332 -95.7021 327.356 -91.6865 538.667c0.500977 26.3809 0.932617 49.1641 0.569336 62.6543l-1.39453 51.5254l103.061 2.7832l1.39453 -51.5254c0.431641 -15.8613 0 -38.6055 -0.549805 -67.3975
c-2.04688 -107.621 -7.47656 -393.491 62.1982 -464.511c9.71484 -9.90625 17.7266 -11.2363 24.2803 -11.2363c10.5107 0 41.9824 29.0859 61.0645 161.916c6.30859 43.9219 10.3047 92.0654 12.9014 140.543c0.0986328 80.1748 0.810547 160.63 2.15039 243.25
l0.839844 51.54l2.87207 -0.0488281l0.0146484 1.83594z" />
    <glyph glyph-name="v" unicode="v" horiz-adv-x="412" 
d="M303.129 697.264l103.096 0.000976562v-51.5449c0 -111.132 -42.002 -308.069 -124.838 -585.334c-2.5332 -8.4873 -4.4082 -14.751 -5.45898 -18.4131l-14.1973 -49.5518l-2.60156 0.746094v-0.0537109h-103.091v51.5449c0 26.2783 -29.5186 116.046 -55.5713 195.249
c-46.6211 141.759 -99.4668 302.438 -99.4668 406.338v51.5449h103.091v-51.5449c0 -87.3867 52.2861 -246.382 94.3076 -374.136c7.08398 -21.5557 13.6084 -41.4473 19.5381 -59.8467c69.3848 249.759 85.1924 373.069 85.1924 433.456v51.5449z" />
    <glyph glyph-name="w" unicode="w" horiz-adv-x="587" 
d="M479.355 698.313l103.079 -0.00195312v-51.5449c0 -102.256 -41.2119 -262.267 -77.5684 -403.437c-21.6045 -83.8955 -43.9453 -170.648 -43.9453 -198.685v-51.5449h-102.491l-0.230469 -0.0634766l-0.0146484 0.0634766h-0.348633v1.2959l-12.9795 48.4277
c-4.19238 15.6504 -14.3691 32.1895 -27.251 53.1367c-7.37793 11.998 -15.3945 25.0566 -23.3525 39.6807c-12.3066 -24.6436 -24.918 -44.9326 -35.2617 -61.54c-6.82812 -10.957 -15.2959 -24.5654 -16.999 -29.627l-11.1875 -49.8857l-2.19922 0.496094v-1.9834
h-103.091v51.5449c0 28.0361 -22.3408 114.789 -43.9453 198.686c-36.3564 141.17 -77.5635 301.181 -77.5635 403.437v51.5449h103.091v-51.5449c0 -89.1982 41.2021 -249.175 74.3086 -377.724c8.22266 -31.9238 15.4639 -60.1807 21.6543 -85.2363
c20.2793 41.0889 37.751 94.1162 37.751 167.89v51.5449h104.833v-51.5449c0 -78.1182 17.7412 -126.688 38.3984 -165.264c6.05273 24.4033 13.0674 51.7959 21.0049 82.6104c33.1064 128.544 74.3086 288.525 74.3086 377.724v51.5449z" />
    <glyph glyph-name="x" unicode="x" horiz-adv-x="391" 
d="M271.247 294.558c56.9062 -80.3223 110.65 -156.188 110.655 -248.375v-51.5449h-103.091v51.5449c0 55.9883 -37.7949 112.526 -83.3613 177.026c-45.5664 -64.5 -83.3613 -121.038 -83.3613 -177.026v-51.5449h-103.091v51.5449
c0 92.1924 53.7441 168.058 110.65 248.38c4.48242 6.33301 9.01367 12.7295 13.5547 19.1895c-55.5508 86.5664 -106.732 192.116 -109.472 332.015l-1.00684 51.5303l103.065 2.01758l1.0166 -51.54c1.85059 -94.5049 31.0303 -171.003 68.6436 -237.688
c37.6133 66.6895 66.793 143.188 68.6436 237.688l1.01172 51.5352l103.065 -2.01758l-1.00684 -51.5303c-2.74414 -139.898 -53.9209 -245.443 -109.472 -332.015c4.54102 -6.45996 9.06738 -12.8564 13.5547 -19.1895z" />
    <glyph glyph-name="y" unicode="y" horiz-adv-x="379" 
d="M348.725 600.477c3.35254 -157.513 5.56836 -261.564 5.56836 -389.122c0 -148.745 -91.0488 -216.608 -175.637 -216.712h-0.180664c-70.0332 -0.00488281 -128.466 54.1963 -142.128 131.862c-9.63672 54.7852 4.66309 124.15 59.9834 185.46
c-26.4941 20.2158 -51.5059 56.4004 -65.2607 120.12c-13.6182 63.0762 -13.584 136.339 -13.5596 184.821c0.00488281 11.9434 0.00976562 22.2568 -0.186523 30.1309l-1.32031 51.5254l103.056 2.63086l1.31543 -51.5303
c0.240234 -9.21387 0.230469 -20.1514 0.225586 -32.8115c-0.0195312 -44.083 -0.0537109 -110.719 11.2373 -163.015c5.08105 -23.5293 16.6318 -62.998 36.9453 -62.998c14.084 0 60.8428 18.4287 71.0488 255.532l2.21387 51.4961l51.4668 -2.21387l53.1699 1.12402z
M178.524 97.7295c33.5293 0.0390625 72.6787 29.8213 72.6836 113.619c0 30.2598 -0.123047 59.209 -0.363281 87.8926c-94.3574 -46.4443 -120.798 -110.355 -112.963 -154.876c4.75195 -27.0293 21.8311 -46.6357 40.6084 -46.6357h0.0341797z" />
    <glyph glyph-name="y" unicode="&#xff;" horiz-adv-x="379" 
d="M348.725 600.477c3.35254 -157.513 5.56836 -261.564 5.56836 -389.122c0 -148.745 -91.0488 -216.608 -175.637 -216.712h-0.180664c-70.0332 -0.00488281 -128.466 54.1963 -142.128 131.862c-9.63672 54.7852 4.66309 124.15 59.9834 185.46
c-26.4941 20.2158 -51.5059 56.4004 -65.2607 120.12c-13.6182 63.0762 -13.584 136.339 -13.5596 184.821c0.00488281 11.9434 0.00976562 22.2568 -0.186523 30.1309l-1.32031 51.5254l103.056 2.63086l1.31543 -51.5303
c0.240234 -9.21387 0.230469 -20.1514 0.225586 -32.8115c-0.0195312 -44.083 -0.0537109 -110.719 11.2373 -163.015c5.08105 -23.5293 16.6318 -62.998 36.9453 -62.998c14.084 0 60.8428 18.4287 71.0488 255.532l2.21387 51.4961l51.4668 -2.21387l53.1699 1.12402z
M178.524 97.7295c33.5293 0.0390625 72.6787 29.8213 72.6836 113.619c0 30.2598 -0.123047 59.209 -0.363281 87.8926c-94.3574 -46.4443 -120.798 -110.355 -112.963 -154.876c4.75195 -27.0293 21.8311 -46.6357 40.6084 -46.6357h0.0341797z" />
    <glyph glyph-name="y" unicode="&#xfd;" horiz-adv-x="379" 
d="M348.725 600.477c3.35254 -157.513 5.56836 -261.564 5.56836 -389.122c0 -148.745 -91.0488 -216.608 -175.637 -216.712h-0.180664c-70.0332 -0.00488281 -128.466 54.1963 -142.128 131.862c-9.63672 54.7852 4.66309 124.15 59.9834 185.46
c-26.4941 20.2158 -51.5059 56.4004 -65.2607 120.12c-13.6182 63.0762 -13.584 136.339 -13.5596 184.821c0.00488281 11.9434 0.00976562 22.2568 -0.186523 30.1309l-1.32031 51.5254l103.056 2.63086l1.31543 -51.5303
c0.240234 -9.21387 0.230469 -20.1514 0.225586 -32.8115c-0.0195312 -44.083 -0.0537109 -110.719 11.2373 -163.015c5.08105 -23.5293 16.6318 -62.998 36.9453 -62.998c14.084 0 60.8428 18.4287 71.0488 255.532l2.21387 51.4961l51.4668 -2.21387l53.1699 1.12402z
M178.524 97.7295c33.5293 0.0390625 72.6787 29.8213 72.6836 113.619c0 30.2598 -0.123047 59.209 -0.363281 87.8926c-94.3574 -46.4443 -120.798 -110.355 -112.963 -154.876c4.75195 -27.0293 21.8311 -46.6357 40.6084 -46.6357h0.0341797z" />
    <glyph glyph-name="z" unicode="z" horiz-adv-x="369" 
d="M353.884 296.517c9.79395 -53.5879 3.85547 -115.096 -16.3057 -168.776c-29.1943 -77.7549 -83.1699 -127.734 -144.391 -133.709c-4.0498 -0.397461 -8.09961 -0.59375 -12.125 -0.59375c-58.3691 0 -113.724 41.0645 -146.619 109.831l-22.2432 46.499
l92.9922 44.4912l22.2432 -46.499c17.7656 -37.127 41.3486 -52.5859 55.7373 -51.123c16.8232 1.63965 42.1045 25.3066 57.8916 67.3477c13.5732 36.165 17.8438 78.7754 11.4033 113.993c-0.814453 4.45703 -20.9219 109.491 -99.5654 113.369l-43.7148 2.15527
l-5.03711 -4.08887l-64.9668 80.042l40.0186 32.4834c23.5732 19.1309 59.1104 57.2988 91.8936 94.6318c-36.6064 -0.643555 -76.1738 -1.87109 -108.392 -4.1543l-51.418 -3.64258l-7.28516 102.83l51.418 3.64258c88.1572 6.24902 221.87 5.0166 227.521 4.95801
c19.749 -0.191406 37.6475 -11.6543 46.0908 -29.5088c8.43848 -17.8545 5.93457 -38.9639 -6.44629 -54.3486c-3.30371 -4.10352 -59.0508 -73.208 -113.605 -131.602c91.5 -30.8828 133.885 -127.97 144.905 -188.229z" />
    <glyph glyph-name="braceleft" unicode="{" horiz-adv-x="426" 
d="M295.551 -72.5264l80.7734 -64.0518l-32.0215 -40.3916c-16.1709 -20.3926 -38.8799 -32.3115 -63.9502 -33.5537c-1.41895 -0.0683594 -2.84277 -0.102539 -4.26172 -0.102539c-25.2471 0 -50.3174 11.0508 -69.3789 30.7314
c-22.125 22.8467 -37.7705 56.459 -47.8389 102.786c-15.5127 71.3438 -16.7793 144.94 -17.9971 216.117c-0.583984 33.9512 -1.18262 69.0605 -3.37695 102.717c-2.59668 39.876 -38.4033 56.8467 -43.7002 59.1143c-21.2314 3.21582 -38.4326 19.3711 -42.7627 40.7061
c-4.60938 22.6943 6.48535 45.6738 27.123 56.1846c21.3838 10.8936 47.8389 42.9746 55.0996 77.8193c8.48242 40.7158 9.2627 84.8086 10.0928 131.499l0.30957 16.8037c1.08008 53.2188 3.75098 114.65 21.8262 170.344c10.8438 33.377 25.3799 57.3232 44.4414 73.2139
c36.249 30.2051 85.6641 26.4941 114.956 -8.62012l33.0137 -39.5918l-79.1836 -66.0176l-12.9648 15.5518c-0.716797 -1.93945 -1.45801 -4.05566 -2.20898 -6.37305c-13.7305 -42.3066 -15.8809 -94.7598 -16.8086 -140.605l-0.30957 -16.5391
c-0.878906 -49.3955 -1.78223 -100.475 -12.2432 -150.689c-7.09375 -34.0498 -23.4463 -67.3574 -45.375 -94.9023c26.6953 -26.0918 48.457 -63.4941 51.5645 -111.19c2.35645 -36.126 2.97949 -72.4873 3.58301 -107.656
c1.18262 -69.2178 2.30176 -134.592 15.6543 -195.989c4.9043 -22.5273 10.4414 -36.0273 14.8301 -43.9404z" />
    <glyph glyph-name="verticalbar" unicode="|" horiz-adv-x="216" 
d="M164.779 -66.709l0.976562 -51.541l-103.071 -1.9541l-0.976562 51.5352c-2.05176 108.103 -3.68652 285.679 -5.13477 442.352c-1.54102 167.129 -2.99902 324.995 -4.64355 369.089l-1.92969 51.5107l103.017 3.84863l1.9248 -51.5059
c1.70801 -45.5459 3.10254 -196.824 4.71777 -371.989c1.44336 -156.433 3.08301 -333.743 5.12012 -441.345z" />
    <glyph glyph-name="braceright" unicode="}" horiz-adv-x="413" 
d="M334.534 394.351c25.1152 -12.7881 35.3027 -43.3828 22.8633 -68.6797c-8.92969 -18.1631 -27.1523 -28.7568 -46.1455 -28.8105c-7.79102 -7.3291 -20.5303 -26.043 -22.4297 -55.1387c-2.19434 -33.666 -2.79297 -68.7705 -3.37695 -102.727
c-1.21777 -71.1719 -2.48438 -144.769 -17.9922 -216.112c-10.0781 -46.3271 -25.7236 -79.9492 -47.8438 -102.781c-19.0615 -19.6758 -44.1318 -30.7314 -69.374 -30.7314c-1.42383 0 -2.84277 0.0292969 -4.26172 0.102539
c-25.0703 1.24219 -47.7793 13.1611 -63.9502 33.5537l-32.0215 40.3916l80.7783 64.0488l21.1094 -26.6221c4.38867 7.91309 9.93066 21.4082 14.8301 43.9355c13.3428 61.3926 14.4668 126.767 15.6494 195.979c0.603516 35.1689 1.22656 71.54 3.58301 107.671
c3.13672 48.1484 21.4717 85.5117 42.9141 110.843c-16.4111 25.9932 -29.0322 58.334 -36.7197 95.2402c-10.4561 50.1855 -11.3643 101.226 -12.2432 150.591l-0.30957 16.6465c-0.927734 45.8359 -3.06836 98.2744 -16.8135 140.62
c-0.746094 2.30762 -1.48242 4.42383 -2.19922 6.36328l-12.9697 -15.5566l-79.1836 66.0176l33.0137 39.5918c29.292 35.1143 78.7021 38.835 114.951 8.625c19.0762 -15.8955 33.6123 -39.8467 44.4463 -73.2139c18.0801 -55.7227 20.7461 -117.149 21.8262 -170.349
l0.314453 -16.9023c0.830078 -46.6455 1.61523 -90.709 10.0928 -131.4c9.62207 -46.1797 28.2373 -74.4609 41.4619 -81.1963z" />
    <glyph glyph-name="nonbreakingspace" unicode="&#xa0;" horiz-adv-x="228" 
 />
    <glyph glyph-name="exclamdown" unicode="&#xa1;" horiz-adv-x="213" 
d="M160.273 0.0693359l2.5332 -51.4814l-102.968 -5.06152l-2.5332 51.4814c-7.78613 158.22 -9.27344 318.79 -4.43262 477.25l1.57129 51.5205l103.041 -3.14648l-1.57129 -51.5205c-4.75684 -155.74 -3.29395 -313.542 4.35938 -469.042zM53.5361 582.034
l-2.68555 51.4756c-1.46777 28.1875 -1.03613 56.6943 1.30078 84.7451l4.27539 51.3682l102.737 -8.55176l-4.27539 -51.3682c-1.9541 -23.4355 -2.31738 -47.2588 -1.08984 -70.8223l2.69043 -51.4717z" />
    <glyph glyph-name="cent" unicode="&#xa2;" horiz-adv-x="461" 
d="M314.056 223.564l96.7812 -35.5137l-17.7607 -48.3887c-26.3867 -71.8936 -74.5254 -120.302 -127.729 -132.579c0.123047 -8.44824 0.231445 -16.8574 0.359375 -25.3447l0.47168 -31.9043l-63.8135 -0.947266l-0.476562 31.9043
c-0.147461 9.80859 -0.275391 19.5381 -0.413086 29.2969c-61.9473 20.4854 -113.586 91.3965 -137.002 190.108c-20.1709 85.0449 -19.2188 188.052 2.6123 282.615c14.4619 62.6396 35.5518 112.506 62.6748 148.215c20.4414 26.9111 44.5107 45.3789 69.8564 54.6328
c0.275391 31.2412 0.589844 62.6494 0.958008 94.3125l0.373047 31.9043l63.8125 -0.741211l-0.373047 -31.9092c-0.353516 -30.2148 -0.65332 -60.1895 -0.917969 -90.0215c3.5791 -0.913086 7.14844 -1.96387 10.6973 -3.25977
c26.9951 -9.85254 50.0723 -30.1611 66.7383 -58.7266c17.9082 -30.7012 29.5039 -73.6064 34.4521 -127.513l4.71289 -51.3291l-102.658 -9.42578l-4.71289 51.3291c-2.36133 25.7334 -6.19043 44.623 -10.1426 58.3145
c-0.588867 -142.506 -0.132812 -283.092 1.38379 -427.521c11.1484 10.9473 22.999 28.6201 32.3555 54.1084zM164.779 223.976c8.84082 -37.2598 21.9072 -65.5068 35.1475 -84.9072c-1.35938 137.896 -1.75195 272.497 -1.19238 408.852
c-12.3164 -22.8906 -23.1211 -53.3027 -31.2012 -88.3096c-18.3848 -79.625 -19.3857 -165.509 -2.75391 -235.635z" />
    <glyph glyph-name="sterling" unicode="&#xa3;" horiz-adv-x="447" 
d="M303.225 98.2998l51.4141 3.68652l7.3877 -102.825l-51.4131 -3.69141c-21.8506 -1.57129 -57.166 -2.01758 -90.3418 -2.01758c-42.4434 0 -81.3916 0.731445 -84.2393 0.785156c-14.3545 0.280273 -27.9473 6.5293 -37.4951 17.251
c-9.55273 10.7168 -14.1963 24.9385 -12.8213 39.2285c0.770508 7.97266 15.0166 155.623 27.5889 268.625c-9.27832 -0.6875 -18.6055 -1.46289 -28.0654 -2.41992l-29.3076 -2.96484l-5.92969 58.6094l29.3018 2.96484c13.8193 1.39941 27.4023 2.47461 40.8828 3.33398
c1.13379 9.32227 2.22363 17.9766 3.25488 25.7773c8.48242 64.3281 17.2598 130.841 36.8916 192.288c19.0273 59.5615 45.4873 94.377 80.877 106.424c41.8594 14.2559 86.6201 -7.25098 114.037 -54.7949c15.1006 -26.1895 25.5859 -59.2715 32.999 -104.111
l8.4043 -50.8535l-101.711 -16.8184l-8.4043 50.8535c-4.61426 27.918 -10.6084 49.4932 -17.8545 64.2695c-2.99414 -6.2832 -6.46973 -14.835 -10.1465 -26.3369c-16.8281 -52.6797 -24.9922 -114.559 -32.8857 -174.396
c-0.457031 -3.48047 -0.933594 -7.19629 -1.41992 -11.0254c14.0449 -0.55957 28.1875 -1.36914 42.5518 -2.5127l29.3613 -2.34668l-4.67871 -58.7227l-29.3613 2.3418c-15.1396 1.20801 -30.0342 2.06738 -44.8154 2.58301
c-8.26172 -73.2432 -17.6875 -166.432 -23.4805 -224.845c37.5742 -0.259766 84.6182 -0.12207 109.419 1.66016z" />
    <glyph glyph-name="currency" unicode="&#xa4;" horiz-adv-x="529" 
d="M416.511 194.154c16.9658 -16.9805 31.2285 -31.0186 41.3955 -40.5811l21.4629 -20.1709l-40.3477 -42.9248l-21.4629 20.1709c-9.22949 8.6748 -21.5762 20.7754 -36.1172 35.2666c-12.2285 -12.4102 -25.5762 -22.5723 -39.8613 -30.2012
c-22.2139 -11.8652 -47.6328 -17.9717 -73.7539 -17.9717c-10.54 0 -21.1924 0.996094 -31.7959 3.00391c-33.2539 6.29883 -63.6709 21.6787 -88.7021 44.5693c-14.2852 -14.2363 -26.4102 -26.1064 -35.5166 -34.668l-21.4629 -20.1709l-40.3477 42.9248l21.4629 20.1709
c9.65137 9.07227 23.0186 22.209 38.8604 38.041c-11.5459 20.2256 -19.415 42.4248 -22.8516 65.2227c-9.05762 60.0771 -1.00195 116.649 22.6055 163.732c-14.5996 14.4033 -27.7119 27.1377 -38.6299 37.4121l-21.4473 20.1865l40.377 42.8955l21.4473 -20.1865
c9.37598 -8.82617 20.1953 -19.2822 32.0215 -30.8828c30.127 33.0234 68.2754 53.1553 106.33 55.6543c60.7744 3.99121 105.609 -19.6504 136.792 -54.2295c11.2666 11.0352 21.5752 20.9912 30.5732 29.459l21.4473 20.1865l40.377 -42.8955l-21.4473 -20.1865
c-10.7119 -10.0781 -23.5537 -22.542 -37.8193 -36.6113c13.7549 -28.5557 21.3887 -58.8789 23.5977 -85.3291c4.22656 -50.6816 -5.60645 -100.906 -27.1865 -141.887zM256.943 422.781c-9.88672 -0.648438 -25.9365 -8.93359 -40.0205 -25.8213
c15.4834 -15.665 31.5068 -31.9482 47.7607 -48.502c16.6123 16.9121 32.9844 33.5586 48.7822 49.5322c-11.6934 14.2412 -28.1777 24.9629 -51.373 24.9629c-1.68359 0 -3.3916 -0.0585938 -5.14941 -0.171875zM189.417 272.206
c0.0195312 -0.142578 0.0605469 -0.286133 0.0849609 -0.428711c10.1318 10.3242 20.4707 20.8789 30.9268 31.5459l3.00293 3.06445c-11.0352 11.2422 -22.0654 22.4541 -32.959 33.5049c-3.83887 -18.3848 -5.11035 -40.7803 -1.05566 -67.6865zM293.015 206.649
c5.30664 2.83789 10.7314 7.18066 15.8955 12.5762c-13.6279 13.8779 -27.7266 28.2666 -42.0361 42.8662c-0.72168 0.736328 -1.45801 1.49219 -2.18457 2.22852c-0.72168 -0.736328 -1.46289 -1.49219 -2.18457 -2.22852
c-14.4814 -14.7764 -28.752 -29.3418 -42.5312 -43.3721c10.25 -8.39941 22.4736 -14.2607 35.2568 -16.6807c13.8779 -2.64062 27.2891 -0.996094 37.7842 4.61035zM337.201 274.501c3.90723 16.6465 5.27734 34.7871 3.75586 52.9707
c-0.0195312 0.21582 -0.525391 5.05664 -2.04688 12.4395c-10.8984 -11.0557 -21.9287 -22.2725 -32.9688 -33.5195c1.00098 -1.0166 2.00195 -2.04297 3.00293 -3.06445c9.53809 -9.73438 18.9785 -19.3662 28.2568 -28.8262z" />
    <glyph glyph-name="yen" unicode="&#xa5;" horiz-adv-x="424" 
d="M374.406 716.543l-12.3359 -50.041c-22.1299 -89.7969 -74.4258 -253.99 -93.6299 -313.532c14.418 -0.55957 28.9238 -1.3252 43.6562 -2.41016l29.376 -2.15527l-4.32031 -58.752l-29.376 2.16016c-15.1689 1.11426 -30.0977 1.90918 -44.9277 2.43945
c-0.304688 -16.2344 -0.530273 -32.3955 -0.638672 -48.4824c16.4551 -0.554688 33.0381 -1.43848 49.8857 -2.68066l29.376 -2.15527l-4.32031 -58.752l-29.376 2.16016c-15.3701 1.12891 -30.4951 1.92871 -45.5166 2.45898
c0.363281 -44.3828 1.44336 -88.9766 3.32324 -135.103l2.10156 -51.501l-103.002 -4.19727l-2.10059 51.501c-1.9248 47.1807 -3.0293 92.8057 -3.40234 138.21c-14.9287 -0.839844 -29.9902 -1.93945 -45.3213 -3.37305l-29.3271 -2.74414l-5.47363 58.6533
l29.3271 2.73926c17.167 1.60059 34.0244 2.84277 50.7197 3.74121c0.103516 16.0869 0.324219 32.2529 0.619141 48.4824c-15.1104 -0.844727 -30.3477 -1.95898 -45.8652 -3.40723l-29.3271 -2.74414l-5.47852 58.6533l29.3271 2.73926
c16.2783 1.52148 32.2627 2.68945 48.1094 3.57812c-19.5137 60.5732 -74.9668 234.178 -93.8818 309.174l-12.6064 49.9844l99.958 25.2129l12.6064 -49.9795c9.63672 -38.207 29.9307 -105.491 49.6309 -168.833c18.9053 61.5449 38.6348 128.333 49.7832 173.575
l12.332 50.0479z" />
    <glyph glyph-name="section" unicode="&#xa7;" horiz-adv-x="372" 
d="M321.322 354.386c2.22852 -34.9082 -7.68359 -79.4746 -38.3896 -116.533c12.96 -19.9062 22.6504 -43.332 28.0205 -67.7939c4.89941 -22.3213 8.53223 -56.1104 -1.98828 -90.3467c-21.458 -69.7871 -73.6562 -98.9912 -121.142 -98.9912
c-5.68457 0 -11.2959 0.416992 -16.7793 1.23633c-56.5137 8.40918 -117.47 61.7412 -117.75 158.955l-0.147461 51.5449l103.091 0.299805l0.147461 -51.5449c0.108398 -38.5166 18.3555 -55.5752 29.833 -57.2832c14.3594 -2.1748 22.1602 19.4248 24.207 26.0762
c3.02441 9.84766 2.9707 23.6914 -0.161133 37.957c-2.14062 9.73926 -5.54297 18.9434 -9.89746 27.0977l-0.240234 -0.157227l-9.42578 14.5801c-11.5557 14.0596 -27.3232 25.1738 -45.2021 37.7168c-17.123 12.0127 -36.5381 25.626 -54.2354 43.7012
c-16.1855 16.5244 -27.2559 33.5732 -33.8193 52.0996c-8.9248 25.1689 -9.8623 55.2666 -2.61621 84.7207c4.25098 17.3193 13.7842 40.5635 27.6621 63.6455c-10.0439 14.5654 -17.0635 31.9434 -20.4609 51.1182c-12.2139 68.7666 7.88379 127.749 55.1436 161.818
c41.9141 30.21 97.5244 34.2451 141.667 10.2744c41.7764 -22.6797 65.2363 -66.7041 62.752 -117.769l-2.49902 -51.4814l-102.973 5.00195l2.50391 51.4863c0.814453 16.8525 -6.29395 20.7109 -8.97461 22.1689c-7.83008 4.25098 -21.4033 4.47656 -32.1982 -3.30469
c-14.0693 -10.1475 -19.0176 -31.5166 -13.9268 -60.1807c0.830078 -4.66895 2.2002 -7.85449 3.23145 -9.68066l15.5371 -14.0205c7.62891 -5.41504 16.5342 -10.5352 27 -16.3623l1.21777 -0.682617c20.6523 -11.4971 44.0586 -24.5254 65.1729 -46.0176
c27.1025 -27.5889 43.3076 -62.8701 45.6396 -99.3496zM207.799 309.427c11.1191 16.917 10.9238 34.0508 10.6387 38.3955c-0.741211 11.6104 -6.68164 23.8828 -16.2988 33.6719c-9.73438 9.90625 -22.5566 17.4463 -37.3428 25.7129
c-5.19336 -10.1475 -8.63477 -19.082 -9.8623 -24.0742c-2.38086 -9.69531 -2.50391 -19.5332 -0.324219 -25.6846c1.47266 -4.16797 4.74707 -8.74316 10.3037 -14.4131c11.04 -11.2764 24.9961 -21.0654 39.7773 -31.4287
c1.03125 -0.72168 2.07227 -1.45312 3.1084 -2.17969z" />
    <glyph glyph-name="copyright" unicode="&#xa9;" horiz-adv-x="585" 
d="M533.316 403.894c6.57812 -111.195 -12.9219 -220.829 -53.5049 -300.798c-4.70312 -9.25391 -9.66602 -18.1689 -14.7471 -26.4902c-18.7432 -30.6914 -40.0342 -55.1191 -63.2734 -72.6055c-30.917 -23.2686 -66.665 -35.2373 -103.758 -35.2373
c-15.375 0 -30.9756 2.05664 -46.5664 6.21973c-50.3135 13.4268 -97.0771 48.4434 -131.691 98.585c-34.7217 50.2832 -57.7744 114.783 -64.9268 181.615c-18.3154 171.13 15.8076 323.802 93.6162 418.856c36.4102 44.4912 80.1895 71.1816 123.267 75.1729
c51.6875 4.80078 100.145 -10.8447 140.158 -45.2178c80.6172 -69.2471 115.796 -204.938 121.427 -300.101zM387.879 149.766c32.5566 64.1416 48.0586 154.551 42.5215 248.044c-4.78613 80.8232 -35.7529 185.092 -85.6934 227.982
c-16.7002 14.3447 -34.2158 21.1934 -54.5244 21.1934c-2.9209 0 -5.90527 -0.137695 -8.9541 -0.422852c-11.5312 -1.07031 -31.5059 -11.5605 -52.9932 -37.8145c-22.3115 -27.2598 -93.3652 -132.53 -70.8867 -342.595
c5.27734 -49.3115 22.5029 -98.1621 47.2549 -134.022c20.7109 -29.9941 46.7881 -50.4355 73.4395 -57.5488c22.5771 -6.00879 43.3525 -2.04688 61.7666 11.7969c12.6211 9.49414 25.5029 24.6875 37.2646 43.9512
c0 0.00488281 0.00488281 0.00976562 0.00488281 0.0146484c3.68652 6.02832 7.31934 12.5674 10.7998 19.4209zM313.206 269.86l10.2031 30.2295l60.4648 -20.4072l-10.2061 -30.2354c-14.2607 -42.2568 -43.3916 -68.3242 -74.7607 -68.3242
c-3.73535 0 -7.49609 0.373047 -11.2764 1.12402c-33.5732 6.71582 -60.5391 42.459 -72.1348 95.624c-8.66895 39.7539 -8.27148 87.8574 1.08984 131.971c6.2832 29.5918 15.5566 53.3076 27.5596 70.4893c19.5527 28.0107 47.8975 38.9727 73.9697 28.6191
c13.6328 -5.41016 25.0859 -16.1904 33.1221 -31.1729c8.10938 -15.1201 13.1211 -35.0752 15.3057 -61.0049l2.68555 -31.7959l-63.5869 -5.37012l-2.68555 31.7959c-1.47266 17.4121 -4.29492 27.3975 -6.33203 32.6162
c-0.0537109 -0.078125 -0.102539 -0.151367 -0.161133 -0.234375c-6.8877 -9.85254 -13.0781 -26.6123 -17.4521 -47.2012c-7.4375 -35.0508 -7.87402 -74.3428 -1.16309 -105.118c5.92969 -27.1816 16.2334 -41.4424 21.2061 -45.6445
c3.1123 2.49414 9.21875 9.43066 14.1523 24.04z" />
    <glyph glyph-name="softhyphen" unicode="&#xad;" 
 />
    <glyph glyph-name="registered" unicode="&#xae;" horiz-adv-x="585" 
d="M533.313 403.894c6.57812 -111.195 -12.9229 -220.829 -53.5059 -300.798c-4.70312 -9.25391 -9.66602 -18.1689 -14.7471 -26.4902c-18.7432 -30.6914 -40.0342 -55.1191 -63.2734 -72.6055c-30.917 -23.2686 -66.665 -35.2373 -103.758 -35.2373
c-15.375 0 -30.9756 2.05664 -46.5664 6.21973c-50.3135 13.4268 -97.0771 48.4434 -131.691 98.585c-34.7217 50.2832 -57.7744 114.783 -64.9268 181.615c-18.3154 171.13 15.8076 323.802 93.6162 418.856c36.4102 44.4912 80.1895 71.1816 123.267 75.1729
c51.6582 4.80078 100.146 -10.8447 140.159 -45.2178c80.6172 -69.2471 115.796 -204.938 121.427 -300.101zM387.875 149.766c32.5566 64.1416 48.0586 154.551 42.5215 248.044c-4.78613 80.8232 -35.7529 185.092 -85.6934 227.982
c-16.7002 14.3447 -34.2158 21.1934 -54.5244 21.1934c-2.9209 0 -5.90527 -0.137695 -8.9541 -0.422852c-11.5312 -1.07031 -31.5059 -11.5605 -52.9932 -37.8145c-22.3115 -27.2598 -93.3652 -132.53 -70.8867 -342.595
c5.27734 -49.3115 22.5029 -98.1621 47.2549 -134.022c20.7109 -29.9941 46.7881 -50.4355 73.4395 -57.5488c22.582 -6.00879 43.3525 -2.04688 61.7666 11.7969c12.6211 9.49414 25.5029 24.6875 37.2646 43.9512
c0 0.00488281 0.00488281 0.00976562 0.00488281 0.0146484c3.68652 6.02832 7.31934 12.5674 10.7998 19.4209zM329.662 287.454c10.4756 -17.1523 20.3672 -33.3584 33.8379 -51.6592l18.9248 -25.6895l-51.3877 -37.8486l-18.9199 25.6943
c-9.6709 13.127 -17.6875 25.2822 -25.0166 36.9365c0.132812 -7.41309 0.250977 -14.8057 0.40332 -22.3018l0.637695 -31.9043l-63.8076 -1.27637l-0.638672 31.9043c-1.84082 92.0547 -2.02734 177.482 -0.59375 268.825l0.500977 31.9043l39.2725 -0.613281
c22.5771 3.98633 71.3438 4.2168 99.1191 -57.8047c10.2354 -22.8467 13.5244 -50.8184 8.79688 -74.8232c-4.79102 -24.3145 -17.4814 -45.2568 -37.7217 -62.252c-4.76172 -4.00098 -9.63672 -7.64844 -14.5996 -10.9326
c3.86816 -6.16113 7.56445 -12.209 11.1924 -18.1592zM308.17 391.123c2.1748 11.0205 0.392578 25.6611 -4.41797 36.4121c-5.85645 13.0635 -11.5117 18.7285 -17.2549 20.7852c-0.348633 -29.5137 -0.505859 -58.5605 -0.500977 -87.5586
c2.01758 1.44824 4.03027 2.96973 6.02832 4.64844c9.18457 7.71191 14.167 15.6396 16.1455 25.7129z" />
    <glyph glyph-name="mu" unicode="&#xb5;" horiz-adv-x="463" 
d="M411.164 2.77832l2.03809 -51.5l-103.007 -4.05957l-2.03223 51.5059c-0.844727 21.374 -1.56641 46.5039 -2.18457 73.877c-22.7832 -30.5986 -52.498 -52.7676 -91.3096 -53.8916c-0.97168 -0.0292969 -1.94824 -0.0439453 -2.90527 -0.0439453
c-22.9795 0 -42.2773 8.04102 -58.5605 22.5566c-0.0244141 -8.24707 -0.0439453 -16.2637 -0.0634766 -23.9951c-0.118164 -50.3477 -0.113281 -99.5264 1.2666 -147.699c0.731445 -25.292 1.89941 -51.791 7.42188 -73.1895l12.877 -49.9102l-99.8213 -25.7529
l-12.877 49.9102c-8.19336 31.7471 -9.75 64.8242 -10.6533 95.9824c-1.41895 49.6602 -1.42871 99.7178 -1.30566 150.909c0.304688 127.562 1.39941 328.849 3.45605 476.308l0.603516 43.3174l-0.235352 2.53809l0.269531 0.0244141l0.078125 5.66016l53.0527 -0.741211
l49.2529 4.56055l0.486328 -5.25293l0.290039 -0.00488281l-0.0390625 -2.71973l4.01074 -43.3467c0.898438 -9.68066 1.64941 -24.0498 2.69531 -43.9365c2.70508 -51.5898 6.79395 -129.556 17.3779 -201.522c12.3213 -83.7246 27.3379 -115.894 34.7607 -127.327
c12.3613 11.4033 37.9668 52.5908 59.6455 157.557c19.1748 92.8203 25.6992 186.568 26.4893 208.262v50.6123h1.66895l0.0537109 1.66895l50.6416 -1.66895h50.7207v-1.66895l1.66895 -0.0537109l-1.66895 -50.6416c0 -22.5918 0.152344 -341.985 5.83691 -486.322z" />
    <glyph glyph-name="paragraph" unicode="&#xb6;" horiz-adv-x="532" 
d="M480.797 4.62012l1.04395 -51.5312l-103.071 -2.07129l-1.03613 51.5352c-1.47754 73.4492 -2.70508 185.621 -3.7998 295.157c-13.8047 -7.42773 -27.6729 -14.0156 -41.4873 -19.7148c0.981445 -99.7178 2.0957 -201.729 3.53906 -273.376l1.03613 -51.5352
l-103.071 -2.07129l-1.03613 51.5352c-1.33008 66.1943 -2.38574 157.852 -3.30859 249.773c-5.46387 -0.37793 -10.874 -0.637695 -16.1709 -0.637695c-9.54785 0 -18.7871 0.618164 -27.6826 1.87988c-19.0566 2.7002 -47.4609 8.61523 -73.9941 28.7129
c-26.6367 20.1816 -46.3418 51.2119 -55.4922 87.3867c-7.4668 29.4893 -8.28613 64.8691 -2.31641 99.625c4.9873 29.0078 14.0049 57.8535 26.0762 83.4297c38.7764 82.1533 104.288 133.35 179.726 140.453c38.585 3.61816 76.4287 -5.03613 109.555 -23.9561
c-0.0439453 1.31543 -0.0878906 2.53809 -0.131836 3.66699l-2.03711 51.5059l103.012 4.07422l2.03711 -51.5059c1.49219 -37.7754 2.71484 -162.716 4.12891 -307.386c1.26172 -129.374 2.69531 -276.013 4.48242 -364.95zM200.213 355.638
c8.56641 -1.21777 18.1426 -1.17188 28.3877 -0.0771484c-0.799805 84.249 -1.5752 164.831 -2.43457 218.86c-20.7803 -13.9912 -39.0957 -36.4209 -52.9199 -65.7129c-8.02637 -17.0146 -14.3145 -37.2158 -17.6914 -56.8818
c-3.53418 -20.5547 -3.29395 -41.2812 0.65332 -56.877c4.94336 -19.5381 14.8691 -28.2861 17.7949 -30.5c5.88086 -4.45215 13.4756 -7.00977 26.21 -8.81152zM361.951 411.019l10.7988 7.45117c-0.358398 35.9443 -0.711914 70.5781 -1.06543 102.296l-22.1396 30.4463
c-6.02344 8.27637 -12.8418 15.3262 -20.2344 21.1191c0.716797 -45.9639 1.36523 -109.438 2.04785 -180.404c10.2842 5.79297 20.5391 12.1504 30.5928 19.0918z" />
    <glyph glyph-name="questiondown" unicode="&#xbf;" horiz-adv-x="364" 
d="M213.03 177.63l100.749 -21.8311l-10.918 -50.377c-19.8818 -91.7305 -80.4004 -154.36 -146.806 -154.36c-4.1582 0 -8.33105 0.240234 -12.5234 0.741211c-30.5146 3.63281 -56.2432 20.1562 -72.458 46.5371c-18.291 29.7539 -21.0547 66.9941 -21.0742 86.5371
c-0.0195312 28.1289 4.95801 54.7363 9.30273 74.7705c8.08008 37.2598 18.4775 72.4922 28.5361 106.562c4.98242 16.9023 10.1416 34.3789 14.8398 51.5508c11.1826 40.8779 24.0439 94.9854 24.1523 151.018l0.103516 51.5449l103.091 -0.210938l-0.103516 -51.5449
c-0.137695 -68.2119 -14.9336 -130.965 -27.8047 -178.014c-4.96777 -18.1582 -10.2744 -36.1348 -15.4092 -53.5225c-9.9707 -33.7695 -19.3867 -65.6689 -26.6572 -99.2227c-3.45117 -15.9199 -6.97559 -34.6484 -6.96094 -52.832
c0.0146484 -14.668 2.58691 -25.4678 4.78613 -30.6074c10.3926 2.5332 34.251 26.8086 44.2363 72.8848zM131.088 565.583l-5.47559 51.251c-1.54102 14.4033 -2.3457 22.9453 -2.34082 44.9229l0.0146484 51.5449l103.091 -0.0292969l-0.0146484 -51.5449
c-0.00488281 -17.4814 0.510742 -22.3018 1.75293 -33.9365l5.47852 -51.251z" />
    <glyph glyph-name="Agrave" unicode="&#xc0;" horiz-adv-x="401" 
d="M188.513 849.958l-37.8086 -35.0352l-70.0674 75.6191l37.8096 35.0361c31.4863 29.1797 63.0664 59.542 93.8564 90.2529l36.499 36.4004l72.7969 -72.9932l-36.499 -36.4004c-31.6787 -31.5996 -64.1768 -62.8457 -96.5869 -92.8799zM343.253 408.099
c24.1572 -107.838 49.9707 -256.835 49.9707 -351.639v-51.5449h-103.091v51.5449c0 21.6982 -1.51172 46.7686 -4.16797 73.9307c-35.5225 0.299805 -73.0078 0.191406 -112.521 0.0390625c-18.5264 -0.0732422 -37.6084 -0.131836 -56.9844 -0.15625
c-3.65723 -29.4053 -6.10156 -55.7812 -7.11328 -77.8574l-2.36133 -51.4863l-102.982 4.72266l2.36133 51.4961c4.875 106.237 35.0508 263.298 61.6631 374.861c15.7578 66.0518 31.835 123.346 46.4834 165.687c21.752 62.8652 40.627 97.9453 78.0049 103.257
c17.6035 2.51367 35.3057 -3.04785 49.8066 -15.6299c11.9189 -10.3486 48.1973 -41.8252 100.931 -277.225zM173.053 233.521c34.4668 0.132812 67.4912 0.254883 99.1592 0.0878906c-17.7363 109.045 -45.5859 227.722 -69.2725 302.895
c-11.7773 -37.751 -25.9248 -89.6104 -41.1426 -156.324c-11.4336 -50.1113 -21.4775 -100.046 -29.6709 -146.79c13.8486 0.0341797 27.5254 0.0830078 40.9268 0.131836z" />
    <glyph glyph-name="AE" unicode="&#xc6;" horiz-adv-x="657" 
d="M526.479 156.263l6.59277 51.1191l102.246 -13.1904l-6.59766 -51.123c-15.248 -118.195 -86.125 -162.76 -147.37 -165.058c-1.85547 -0.0683594 -3.73047 -0.107422 -5.62012 -0.107422c-26.0479 0 -55.1045 6.92188 -82.5068 28.3398v-1.33008h-103.091v51.5449
c0 21.6982 -1.51172 46.7686 -4.16797 73.9307c-35.5225 0.299805 -73.0029 0.191406 -112.521 0.0390625c-18.5264 -0.0732422 -37.6074 -0.131836 -56.9834 -0.15625c-3.65723 -29.4053 -6.10156 -55.7812 -7.11328 -77.8574l-2.36133 -51.4863l-102.982 4.72266
l2.36133 51.4961c4.875 106.237 35.0508 263.298 61.6631 374.861c15.7578 66.0518 31.835 123.346 46.4834 165.687c21.752 62.8652 40.627 97.9453 78.0049 103.257c17.6035 2.51367 35.3057 -3.04785 49.8066 -15.6299
c9.70996 -8.42871 35.5957 -30.9023 73.376 -166.274c21.8506 73.8721 70.7891 169.407 153.1 182.612c51.5791 8.26172 100.425 -13.333 134.018 -59.2822c49.832 -68.1523 55.7422 -173.015 14.3779 -255.001c-24.1279 -47.8291 -83.4297 -124.764 -218.62 -140.998
c1.71777 -14.2412 3.93164 -28.0898 6.6416 -41.418c7.6875 -37.79 29.999 -125.696 72.2715 -123.934c24.7168 0.927734 43.0322 29.0566 48.9922 75.2363zM173.051 233.518c34.4668 0.132812 67.4912 0.254883 99.1592 0.0878906
c-17.7363 109.045 -45.5859 227.722 -69.2725 302.895c-11.7773 -37.751 -25.9248 -89.6104 -41.1426 -156.324c-11.4336 -50.1113 -21.4775 -100.046 -29.6709 -146.79c13.8486 0.0341797 27.5254 0.0830078 40.9268 0.131836zM407.734 462.461
c-7.2998 -36.8867 -11.6689 -75.0293 -13.0879 -112.579c62.6641 9.45996 107.347 38.0107 130.513 83.9248c27.167 53.8477 17.4131 116.301 -5.56152 147.719c-11.8164 16.1611 -22.8125 18.7969 -29.4844 18.7969c-2.15039 0 -3.84863 -0.274414 -4.98242 -0.456055
c-29.1943 -4.68359 -65.5752 -77.7109 -77.3965 -137.405z" />
    <glyph glyph-name="Ccedilla" unicode="&#xc7;" horiz-adv-x="362" 
d="M254.938 207.381l102.25 -13.1865l-6.59277 -51.123c-12.8174 -99.3594 -64.9473 -146.678 -117.621 -160.6c0.142578 -29.6709 -0.603516 -59.3857 -2.50293 -88.8496l-2.20898 -34.29l-68.585 4.41309l2.20898 34.2949c1.78711 27.834 2.49902 55.8994 2.36621 83.9199
c-52.9297 13.2793 -109.831 63.043 -138.186 202.451c-18.2324 89.6152 -17.3486 198.263 2.41504 298.074c7.26074 36.7002 49.6211 219.779 170.335 219.823h0.0390625c68.6045 0 120.199 -57.623 134.656 -150.385l7.9375 -50.9316l-101.863 -15.876l-7.9375 50.9316
c-6.08691 39.0225 -21.7617 63.1748 -32.8018 63.1699c-5.91992 0 -20.5244 -11.0508 -36.5039 -41.4775c-16.4258 -31.2754 -27.6826 -69.7236 -32.7393 -95.2754c-17.2158 -86.915 -18.1338 -180.771 -2.52246 -257.505c7.69238 -37.79 29.9697 -125.696 72.2715 -123.934
c24.7217 0.927734 43.0371 29.0518 48.9922 75.2363z" />
    <glyph glyph-name="Egrave" unicode="&#xc8;" horiz-adv-x="379" 
d="M177.159 849.958l-37.8135 -35.0352l-70.0674 75.6191l37.8096 35.0361c31.4863 29.1797 63.0664 59.542 93.8613 90.2529l36.499 36.4004l72.7969 -72.9932l-36.499 -36.4004c-31.6787 -31.5996 -64.1768 -62.8457 -96.5869 -92.8799zM248.356 156.264l6.58887 51.1211
l102.246 -13.1904l-6.59766 -51.123c-15.248 -118.19 -86.125 -162.76 -147.37 -165.058c-1.85547 -0.0683594 -3.73047 -0.107422 -5.62012 -0.107422c-60.416 0 -137.066 37.0537 -171.533 206.51c-18.2324 89.6152 -17.3486 198.263 2.41504 298.074
c14.6631 74.0879 65.335 203.634 162.19 219.171c51.5801 8.26172 100.426 -13.333 134.019 -59.2822c49.832 -68.1523 55.7422 -173.015 14.3779 -255.001c-24.1279 -47.8291 -83.4297 -124.764 -218.62 -140.998c1.71777 -14.2412 3.93164 -28.085 6.6416 -41.418
c7.6875 -37.79 30.2148 -125.402 72.2705 -123.935c24.7168 0.927734 43.0322 29.0566 48.9922 75.2363zM129.617 462.465c-7.30957 -36.8867 -11.6787 -75.0244 -13.0879 -112.579c62.6641 9.45996 107.347 38.0107 130.513 83.9248
c27.167 53.8477 17.4131 116.301 -5.56152 147.719c-11.8164 16.1611 -22.8125 18.7969 -29.4844 18.7969c-2.15039 0 -3.84863 -0.274414 -4.98242 -0.456055c-29.1992 -4.68359 -65.5801 -77.7109 -77.3965 -137.405z" />
    <glyph glyph-name="Igrave" unicode="&#xcc;" horiz-adv-x="157" 
d="M124.17 1052.23l72.7969 -72.998l-36.499 -36.3955c-31.7275 -31.6387 -64.2256 -62.8896 -96.5908 -92.8789l-37.8096 -35.0361l-70.0674 75.6191l37.8096 35.0361c31.4473 29.1357 63.0225 59.5029 93.8613 90.2529zM129.556 576.916l-0.648438 -51.54
l-103.086 1.30566l0.65332 51.54c0.264648 20.8877 0.569336 42.002 0.922852 63.376l0.844727 51.5352l103.076 -1.69336l-0.844727 -51.54c-0.348633 -21.2363 -0.65332 -42.2227 -0.917969 -62.9834zM129.001 394.176
c-1.38965 -145.166 -0.722656 -176.236 1.75684 -291.835l2.15527 -102.447l-103.071 -2.15039l-2.15039 102.384c-2.44434 113.9 -3.18066 148.273 -1.77637 295.035l0.496094 51.54l103.086 -0.981445z" />
    <glyph glyph-name="Ntilde" unicode="&#xd1;" horiz-adv-x="405" 
d="M128.69 901.498l-3.91309 -49.8701l-102.776 8.06055l4.03027 51.3926c4.03516 51.5205 38.3398 93.4189 81.5596 99.624c41.207 5.95508 73.749 -19.4492 89.3896 -31.6436l5.17383 -4.05957c5.4834 -4.32031 13.1611 -10.3682 18.291 -13.4316
c2.36133 2.27246 5.83203 6.56836 9.16504 13.6426l21.958 46.6357l93.2725 -43.9121l-21.9531 -46.6357c-24.5947 -52.2275 -70.4893 -80.8672 -116.909 -72.9443c-28.5459 4.88477 -50.2148 21.9639 -67.627 35.6846l-4.72754 3.71094
c-1.82617 1.42383 -3.46094 2.66602 -4.93359 3.74609zM380.707 203.36c-0.859375 -52.748 -1.66309 -102.576 -0.730469 -149.129l1.02637 -51.5352l-103.071 -2.06152l-1.03125 51.5352c-0.966797 48.4229 -0.107422 101.515 0.727539 152.863
c2.76855 170.698 6.56836 404.478 -73.877 408.149c-18.1885 0.830078 -26.166 -4.33887 -31.5713 -9.50293c-24.2266 -23.1416 -37.6084 -88.668 -39.8711 -194.974c-0.692383 -114.332 -0.447266 -232.866 1.76172 -354.425l0.9375 -51.5352l-103.071 -1.875
l-0.9375 51.54c-1.67871 92.3252 -2.2334 182.849 -2.11035 271.084h-0.0146484v51.5449c0 12.1992 0.12793 23.9316 0.353516 35.3008c0.491211 80.415 1.44824 158.744 2.52832 234.511l0.736328 51.54l90.0371 -1.29102c24.4229 15.4688 53.1953 22.5723 85.9238 21.0654
c85.0596 -3.88281 138.971 -68.6387 160.241 -192.475c15.7236 -91.5342 13.8389 -207.845 12.0127 -320.331z" />
    <glyph glyph-name="Ograve" unicode="&#xd2;" horiz-adv-x="409" 
d="M191.856 849.958l-37.8135 -35.0352l-70.0674 75.6191l37.8096 35.0361c31.4863 29.1797 63.0664 59.542 93.8613 90.2529l36.499 36.4004l72.7969 -72.9932l-36.499 -36.4004c-31.6787 -31.5996 -64.1768 -62.8457 -96.5869 -92.8799zM395.952 390.21
c4.8457 -98.3975 -9.53809 -195.51 -39.4688 -266.426c-3.46582 -8.22266 -7.15234 -16.1904 -10.957 -23.6816c-14.1875 -27.9521 -30.5098 -50.3867 -48.5117 -66.6797c-25.7139 -23.2734 -56.6406 -35.3887 -88.5498 -35.3887
c-13.3086 0 -26.7891 2.11133 -40.1367 6.39648c-41.2803 13.25 -77.4941 45.3359 -104.72 92.7822c-25.7334 44.8398 -42.8018 102.134 -48.0693 161.327c-23.1367 260.058 71.0098 433.107 171.503 444.3c38.5996 4.27539 75.1914 -7.20215 105.814 -33.2842
c90.6357 -77.1709 102.089 -258.88 103.096 -279.346zM261.503 163.861c24.1182 57.1562 35.5957 137.802 31.4814 221.275c-3.71094 75.3447 -28.4375 173.124 -66.9639 205.927c-7.72168 6.58301 -14.8838 9.56738 -23.2539 9.56738
c-1.4043 0 -2.83789 -0.0878906 -4.31543 -0.25c-5.04199 -1.1582 -31.5508 -19.248 -54.4268 -80.4492c-25.1299 -67.2246 -34.29 -156.815 -25.8027 -252.258c3.91699 -44.0049 16.5967 -87.4355 34.7998 -119.148c13.8193 -24.084 30.8828 -40.8291 46.8174 -45.9443
c7.27539 -2.32715 16.3125 -3.29883 27.9961 7.27051c5.93555 5.375 15.2188 16.1357 25.7588 36.9062c0 0 0.00488281 0.00488281 0.00488281 0.00976562c2.71484 5.33594 5.37109 11.0898 7.9043 17.0938z" />
    <glyph glyph-name="Oslash" unicode="&#xd8;" horiz-adv-x="410" 
d="M396.956 390.209c4.8457 -98.3975 -9.54102 -195.509 -39.4863 -266.425c-3.46582 -8.22266 -7.15234 -16.1904 -10.957 -23.6816c-14.1826 -27.9473 -30.5 -50.3867 -48.502 -66.6748c-25.7188 -23.2793 -56.6455 -35.3945 -88.5547 -35.3945
c-13.3135 0 -26.7891 2.11133 -40.1367 6.39648c-13.1904 4.23145 -25.8555 10.4121 -37.8828 18.3799c-11.374 -35.4141 -23.2686 -71.751 -35.8896 -109.384l-10.1475 -30.25l-60.5039 20.2939l10.1475 30.2549c16.1758 48.2266 31.1875 94.3965 45.3604 139.074
c-5.54688 7.61914 -10.8242 15.7539 -15.7969 24.418c-25.7334 44.8447 -42.8018 102.139 -48.0693 161.327c-23.1367 260.058 71.0098 433.107 171.503 444.3c25.3652 2.8125 49.8564 -1.22754 72.3643 -11.7031c17.2109 59.8418 35.041 120.341 54.668 184.026
l9.40039 30.4951l60.9854 -18.792l-9.39551 -30.4951c-22.209 -72.0703 -42.125 -140.14 -61.4766 -207.87c71.6729 -84.9561 81.4473 -239.514 82.3701 -258.296zM126.458 222.274c31.4033 104.946 58.7676 202.391 85.5957 298.015
c6.34277 22.5869 12.6113 44.9326 18.875 67.166c-1.28613 1.27148 -2.58691 2.48926 -3.90723 3.61328c-7.72168 6.57812 -14.8838 9.56738 -23.2539 9.56738c-1.4043 0 -2.83789 -0.0878906 -4.31543 -0.25c-5.04199 -1.1582 -31.5508 -19.248 -54.4268 -80.4492
c-25.1299 -67.2246 -34.29 -156.815 -25.8027 -252.258c1.36914 -15.375 3.86816 -30.6475 7.23535 -45.4043zM262.504 163.86c24.123 57.1562 35.5947 137.802 31.4805 221.275c-1.8457 37.5449 -8.91504 80.6562 -20.3086 118.524l-0.175781 -0.618164
c-33.0137 -117.646 -66.8223 -238.021 -107.989 -371.856c11.2266 -14.6973 23.583 -24.8301 35.3301 -28.6055c7.28027 -2.33203 16.3125 -3.30859 28.001 7.27539c5.92969 5.36523 15.2129 16.1309 25.7529 36.9014c0 0 0.00488281 0.00488281 0.00488281 0.00976562
c2.71484 5.33594 5.37109 11.0898 7.9043 17.0938z" />
    <glyph glyph-name="Ugrave" unicode="&#xd9;" horiz-adv-x="420" 
d="M172.521 849.958l-37.8145 -35.0361l-70.0674 75.6191l37.8096 35.0361c31.4521 29.1455 63.0322 59.5127 93.8613 90.2529l36.499 36.4004l72.8018 -72.998l-36.5039 -36.3955c-31.7129 -31.6289 -64.2109 -62.8799 -96.5859 -92.8789zM392.512 699.971
l-0.717773 -81.3447c-0.481445 -62.9395 -1.10449 -139.757 -5.14941 -216.873c-0.132812 -115.466 1.02539 -230.353 3.50488 -350.335l1.06543 -51.5352l-103.071 -2.13086l-0.65332 31.4971c-20.5596 -18.6494 -46.1016 -30.4414 -77.9023 -30.4414
c-36.9902 0 -70.8281 14.5703 -97.8721 42.1299c-92.2656 94.0381 -95.7021 327.366 -91.6816 538.691c0.500977 26.3662 0.932617 49.1445 0.569336 62.625l-1.39453 51.5254l103.051 2.78809l1.39453 -51.5254c0.431641 -15.8613 -0.00488281 -38.6006 -0.549805 -67.3828
c-2.04688 -107.621 -7.48633 -393.506 62.1934 -464.53c9.71484 -9.90137 17.7314 -11.2363 24.2852 -11.2363c10.5107 0 41.9775 29.0859 61.0596 161.891c6.31348 43.9365 10.3096 92.1094 12.9062 140.611c0.0986328 80.1455 0.810547 160.586 2.15039 243.206
l0.839844 51.54l2.87207 -0.0488281l0.0146484 1.84082z" />
    <glyph glyph-name="germandbls" unicode="&#xdf;" horiz-adv-x="366" 
d="M273.88 397.342c53.5674 -48.3398 80.7344 -96.7109 80.7539 -143.774c0.0146484 -55.7031 -34.1426 -118.662 -93.7139 -172.735c-20.7949 -18.8799 -91.2842 -77.7939 -159.923 -77.7988c-3.70605 0 -7.39746 0.171875 -11.0791 0.525391l-40.1953 3.90723
l-15.0811 -0.319336l-1.09473 51.5303c-4.22656 199.568 -4.66309 384.758 -1.37402 582.76v60.8135h51.5449c7.92285 0 19.5332 0.9375 31.8301 1.92871c46.3467 3.7207 109.831 8.8457 158.568 -18.2324c44.8496 -24.9082 74.2842 -78.7607 73.248 -133.998
c-1.0459 -55.9482 -31.4971 -103.188 -83.543 -129.6c-4.25098 -2.15527 -8.43848 -4.15332 -12.5723 -6.00391c8.24219 -6.49023 15.8613 -12.8965 22.6309 -19.0029zM134.664 602.273c-0.510742 -35.6641 -0.893555 -70.96 -1.1582 -106.055
c25.8906 -0.132812 51.6387 1.80664 83.665 18.0605c17.668 8.96875 26.7988 22.292 27.1182 39.6016c0.358398 19.0225 -10.0098 36.2676 -20.2354 41.9473c-19.1357 10.6328 -58.791 8.76758 -89.3896 6.44531zM191.629 157.153
c36.4004 33.0381 59.917 70.8672 59.917 96.375c-0.00488281 15.9893 -20.6523 48.1729 -66.7783 84.0537c-18.3945 14.3047 -36.1797 25.6543 -51.6582 34.2891c0.078125 -84.043 0.882812 -168.076 2.41406 -254.349c16.0186 8.16406 35.5908 21.0059 56.1055 39.6309z
" />
    <glyph glyph-name="agrave" unicode="&#xe0;" horiz-adv-x="402" 
d="M189.513 849.958l-37.8086 -35.0352l-70.0674 75.6191l37.8096 35.0361c31.4863 29.1797 63.0664 59.542 93.8564 90.2529l36.499 36.4004l72.7969 -72.9932l-36.499 -36.4004c-31.6787 -31.5996 -64.1768 -62.8457 -96.5869 -92.8799zM344.253 408.099
c24.1572 -107.838 49.9707 -256.835 49.9707 -351.639v-51.5449h-103.091v51.5449c0 21.6982 -1.51172 46.7686 -4.16797 73.9307c-35.5225 0.299805 -73.0078 0.191406 -112.521 0.0390625c-18.5264 -0.0732422 -37.6084 -0.131836 -56.9844 -0.15625
c-3.65723 -29.4053 -6.10156 -55.7812 -7.11328 -77.8574l-2.36133 -51.4863l-102.982 4.72266l2.36133 51.4961c4.875 106.237 35.0508 263.298 61.6631 374.861c15.7578 66.0518 31.835 123.346 46.4834 165.687c21.752 62.8652 40.627 97.9453 78.0049 103.257
c17.6035 2.51367 35.3057 -3.04785 49.8066 -15.6299c11.9189 -10.3486 48.1973 -41.8252 100.931 -277.225zM174.053 233.521c34.4668 0.132812 67.4912 0.254883 99.1592 0.0878906c-17.7363 109.045 -45.5859 227.722 -69.2725 302.895
c-11.7773 -37.751 -25.9248 -89.6104 -41.1426 -156.324c-11.4336 -50.1113 -21.4775 -100.046 -29.6709 -146.79c13.8486 0.0341797 27.5254 0.0830078 40.9268 0.131836z" />
    <glyph glyph-name="ae" unicode="&#xe6;" horiz-adv-x="659" 
d="M527.479 156.263l6.59277 51.1191l102.246 -13.1904l-6.59766 -51.123c-15.248 -118.195 -86.125 -162.76 -147.37 -165.058c-1.85547 -0.0683594 -3.73047 -0.107422 -5.62012 -0.107422c-26.0479 0 -55.1045 6.92188 -82.5068 28.3398v-1.33008h-103.091v51.5449
c0 21.6982 -1.51172 46.7686 -4.16797 73.9307c-35.5225 0.299805 -73.0029 0.191406 -112.521 0.0390625c-18.5264 -0.0732422 -37.6074 -0.131836 -56.9834 -0.15625c-3.65723 -29.4053 -6.10156 -55.7812 -7.11328 -77.8574l-2.36133 -51.4863l-102.982 4.72266
l2.36133 51.4961c4.875 106.237 35.0508 263.298 61.6631 374.861c15.7578 66.0518 31.835 123.346 46.4834 165.687c21.752 62.8652 40.627 97.9453 78.0049 103.257c17.6035 2.51367 35.3057 -3.04785 49.8066 -15.6299
c9.70996 -8.42871 35.5957 -30.9023 73.376 -166.274c21.8506 73.8721 70.7891 169.407 153.1 182.612c51.5791 8.26172 100.425 -13.333 134.018 -59.2822c49.832 -68.1523 55.7422 -173.015 14.3779 -255.001c-24.1279 -47.8291 -83.4297 -124.764 -218.62 -140.998
c1.71777 -14.2412 3.93164 -28.0898 6.6416 -41.418c7.6875 -37.79 29.999 -125.696 72.2715 -123.934c24.7168 0.927734 43.0322 29.0566 48.9922 75.2363zM174.051 233.518c34.4668 0.132812 67.4912 0.254883 99.1592 0.0878906
c-17.7363 109.045 -45.5859 227.722 -69.2725 302.895c-11.7773 -37.751 -25.9248 -89.6104 -41.1426 -156.324c-11.4336 -50.1113 -21.4775 -100.046 -29.6709 -146.79c13.8486 0.0341797 27.5254 0.0830078 40.9268 0.131836zM408.734 462.461
c-7.2998 -36.8867 -11.6689 -75.0293 -13.0879 -112.579c62.6641 9.45996 107.347 38.0107 130.513 83.9248c27.167 53.8477 17.4131 116.301 -5.56152 147.719c-11.8164 16.1611 -22.8125 18.7969 -29.4844 18.7969c-2.15039 0 -3.84863 -0.274414 -4.98242 -0.456055
c-29.1943 -4.68359 -65.5752 -77.7109 -77.3965 -137.405z" />
    <glyph glyph-name="ccedilla" unicode="&#xe7;" horiz-adv-x="363" 
d="M255.938 207.381l102.25 -13.1865l-6.59277 -51.123c-12.8174 -99.3594 -64.9473 -146.678 -117.621 -160.6c0.142578 -29.6709 -0.603516 -59.3857 -2.50293 -88.8496l-2.20898 -34.29l-68.585 4.41309l2.20898 34.2949c1.78711 27.834 2.49902 55.8994 2.36621 83.9199
c-52.9297 13.2793 -109.831 63.043 -138.186 202.451c-18.2324 89.6152 -17.3486 198.263 2.41504 298.074c7.26074 36.7002 49.6211 219.779 170.335 219.823h0.0390625c68.6045 0 120.199 -57.623 134.656 -150.385l7.9375 -50.9316l-101.863 -15.876l-7.9375 50.9316
c-6.08691 39.0225 -21.7617 63.1748 -32.8018 63.1699c-5.91992 0 -20.5244 -11.0508 -36.5039 -41.4775c-16.4258 -31.2754 -27.6826 -69.7236 -32.7393 -95.2754c-17.2158 -86.915 -18.1338 -180.771 -2.52246 -257.505c7.69238 -37.79 29.9697 -125.696 72.2715 -123.934
c24.7217 0.927734 43.0371 29.0518 48.9922 75.2363z" />
    <glyph glyph-name="egrave" unicode="&#xe8;" horiz-adv-x="381" 
d="M178.159 849.958l-37.8135 -35.0352l-70.0674 75.6191l37.8096 35.0361c31.4863 29.1797 63.0664 59.542 93.8613 90.2529l36.499 36.4004l72.7969 -72.9932l-36.499 -36.4004c-31.6787 -31.5996 -64.1768 -62.8457 -96.5869 -92.8799zM249.356 156.264l6.58887 51.1211
l102.246 -13.1904l-6.59766 -51.123c-15.248 -118.19 -86.125 -162.76 -147.37 -165.058c-1.85547 -0.0683594 -3.73047 -0.107422 -5.62012 -0.107422c-60.416 0 -137.066 37.0537 -171.533 206.51c-18.2324 89.6152 -17.3486 198.263 2.41504 298.074
c14.6631 74.0879 65.335 203.634 162.19 219.171c51.5801 8.26172 100.426 -13.333 134.019 -59.2822c49.832 -68.1523 55.7422 -173.015 14.3779 -255.001c-24.1279 -47.8291 -83.4297 -124.764 -218.62 -140.998c1.71777 -14.2412 3.93164 -28.085 6.6416 -41.418
c7.6875 -37.79 30.2148 -125.402 72.2705 -123.935c24.7168 0.927734 43.0322 29.0566 48.9922 75.2363zM130.617 462.465c-7.30957 -36.8867 -11.6787 -75.0244 -13.0879 -112.579c62.6641 9.45996 107.347 38.0107 130.513 83.9248
c27.167 53.8477 17.4131 116.301 -5.56152 147.719c-11.8164 16.1611 -22.8125 18.7969 -29.4844 18.7969c-2.15039 0 -3.84863 -0.274414 -4.98242 -0.456055c-29.1992 -4.68359 -65.5801 -77.7109 -77.3965 -137.405z" />
    <glyph glyph-name="igrave" unicode="&#xec;" horiz-adv-x="159" 
d="M125.17 1052.23l72.7969 -72.998l-36.499 -36.3955c-31.7275 -31.6387 -64.2256 -62.8896 -96.5908 -92.8789l-37.8096 -35.0361l-70.0674 75.6191l37.8096 35.0361c31.4473 29.1357 63.0225 59.5029 93.8613 90.2529zM130.556 576.916l-0.648438 -51.54
l-103.086 1.30566l0.65332 51.54c0.264648 20.8877 0.569336 42.002 0.922852 63.376l0.844727 51.5352l103.076 -1.69336l-0.844727 -51.54c-0.348633 -21.2363 -0.65332 -42.2227 -0.917969 -62.9834zM130.001 394.176
c-1.38965 -145.166 -0.722656 -176.236 1.75684 -291.835l2.15527 -102.447l-103.071 -2.15039l-2.15039 102.384c-2.44434 113.9 -3.18066 148.273 -1.77637 295.035l0.496094 51.54l103.086 -0.981445z" />
    <glyph glyph-name="ntilde" unicode="&#xf1;" horiz-adv-x="406" 
d="M129.69 901.498l-3.91309 -49.8701l-102.776 8.06055l4.03027 51.3926c4.03516 51.5205 38.3398 93.4189 81.5596 99.624c41.207 5.95508 73.749 -19.4492 89.3896 -31.6436l5.17383 -4.05957c5.4834 -4.32031 13.1611 -10.3682 18.291 -13.4316
c2.36133 2.27246 5.83203 6.56836 9.16504 13.6426l21.958 46.6357l93.2725 -43.9121l-21.9531 -46.6357c-24.5947 -52.2275 -70.4893 -80.8672 -116.909 -72.9443c-28.5459 4.88477 -50.2148 21.9639 -67.627 35.6846l-4.72754 3.71094
c-1.82617 1.42383 -3.46094 2.66602 -4.93359 3.74609zM381.707 203.36c-0.859375 -52.748 -1.66309 -102.576 -0.730469 -149.129l1.02637 -51.5352l-103.071 -2.06152l-1.03125 51.5352c-0.966797 48.4229 -0.107422 101.515 0.727539 152.863
c2.76855 170.698 6.56836 404.478 -73.877 408.149c-18.1885 0.830078 -26.166 -4.33887 -31.5713 -9.50293c-24.2266 -23.1416 -37.6084 -88.668 -39.8711 -194.974c-0.692383 -114.332 -0.447266 -232.866 1.76172 -354.425l0.9375 -51.5352l-103.071 -1.875
l-0.9375 51.54c-1.67871 92.3252 -2.2334 182.849 -2.11035 271.084h-0.0146484v51.5449c0 12.1992 0.12793 23.9316 0.353516 35.3008c0.491211 80.415 1.44824 158.744 2.52832 234.511l0.736328 51.54l90.0371 -1.29102c24.4229 15.4688 53.1953 22.5723 85.9238 21.0654
c85.0596 -3.88281 138.971 -68.6387 160.241 -192.475c15.7236 -91.5342 13.8389 -207.845 12.0127 -320.331z" />
    <glyph glyph-name="ograve" unicode="&#xf2;" horiz-adv-x="411" 
d="M192.856 849.958l-37.8135 -35.0352l-70.0674 75.6191l37.8096 35.0361c31.4863 29.1797 63.0664 59.542 93.8613 90.2529l36.499 36.4004l72.7969 -72.9932l-36.499 -36.4004c-31.6787 -31.5996 -64.1768 -62.8457 -96.5869 -92.8799zM396.952 390.21
c4.8457 -98.3975 -9.53809 -195.51 -39.4688 -266.426c-3.46582 -8.22266 -7.15234 -16.1904 -10.957 -23.6816c-14.1875 -27.9521 -30.5098 -50.3867 -48.5117 -66.6797c-25.7139 -23.2734 -56.6406 -35.3887 -88.5498 -35.3887
c-13.3086 0 -26.7891 2.11133 -40.1367 6.39648c-41.2803 13.25 -77.4941 45.3359 -104.72 92.7822c-25.7334 44.8398 -42.8018 102.134 -48.0693 161.327c-23.1367 260.058 71.0098 433.107 171.503 444.3c38.5996 4.27539 75.1914 -7.20215 105.814 -33.2842
c90.6357 -77.1709 102.089 -258.88 103.096 -279.346zM262.503 163.861c24.1182 57.1562 35.5957 137.802 31.4814 221.275c-3.71094 75.3447 -28.4375 173.124 -66.9639 205.927c-7.72168 6.58301 -14.8838 9.56738 -23.2539 9.56738
c-1.4043 0 -2.83789 -0.0878906 -4.31543 -0.25c-5.04199 -1.1582 -31.5508 -19.248 -54.4268 -80.4492c-25.1299 -67.2246 -34.29 -156.815 -25.8027 -252.258c3.91699 -44.0049 16.5967 -87.4355 34.7998 -119.148c13.8193 -24.084 30.8828 -40.8291 46.8174 -45.9443
c7.27539 -2.32715 16.3125 -3.29883 27.9961 7.27051c5.93555 5.375 15.2188 16.1357 25.7588 36.9062c0 0 0.00488281 0.00488281 0.00488281 0.00976562c2.71484 5.33594 5.37109 11.0898 7.9043 17.0938z" />
    <glyph glyph-name="divide" unicode="&#xf7;" horiz-adv-x="410" 
d="M320.784 376.481l39.21 -2.29688l-4.59473 -78.4121l-39.2041 2.29785c-74.2354 4.33984 -142.079 3.12207 -219.977 -3.94727l-39.1104 -3.55957l-7.1084 78.2256l39.1104 3.55371c81.9375 7.45215 153.394 8.72852 231.674 4.13867zM238.475 453.48l-11.3252 -37.5996
l-75.2119 22.6357l11.3203 37.6035c3.01953 10.0244 5.43457 20.6768 7.17285 31.6582l6.15137 38.7861l77.5781 -12.3018l-6.15137 -38.7861c-2.29297 -14.4668 -5.49902 -28.5996 -9.53418 -41.9961zM170.435 228.069l6.1416 38.79l77.5781 -12.2969l-6.14648 -38.7812
c-2.28809 -14.4668 -5.49902 -28.5947 -9.53418 -42.001l-11.3203 -37.6035l-75.2119 22.6357l11.3203 37.6035c3.01953 10.0293 5.43457 20.6816 7.17285 31.6533z" />
    <glyph glyph-name="oslash" unicode="&#xf8;" horiz-adv-x="412" 
d="M397.956 390.209c4.8457 -98.3975 -9.54102 -195.509 -39.4863 -266.425c-3.46582 -8.22266 -7.15234 -16.1904 -10.957 -23.6816c-14.1826 -27.9473 -30.5 -50.3867 -48.502 -66.6748c-25.7188 -23.2793 -56.6455 -35.3945 -88.5547 -35.3945
c-13.3135 0 -26.7891 2.11133 -40.1367 6.39648c-13.1904 4.23145 -25.8555 10.4121 -37.8828 18.3799c-11.374 -35.4141 -23.2686 -71.751 -35.8896 -109.384l-10.1475 -30.25l-60.5039 20.2939l10.1475 30.2549c16.1758 48.2266 31.1875 94.3965 45.3604 139.074
c-5.54688 7.61914 -10.8242 15.7539 -15.7969 24.418c-25.7334 44.8447 -42.8018 102.139 -48.0693 161.327c-23.1367 260.058 71.0098 433.107 171.503 444.3c25.3652 2.8125 49.8564 -1.22754 72.3643 -11.7031c17.2109 59.8418 35.041 120.341 54.668 184.026
l9.40039 30.4951l60.9854 -18.792l-9.39551 -30.4951c-22.209 -72.0703 -42.125 -140.14 -61.4766 -207.87c71.6729 -84.9561 81.4473 -239.514 82.3701 -258.296zM127.458 222.274c31.4033 104.946 58.7676 202.391 85.5957 298.015
c6.34277 22.5869 12.6113 44.9326 18.875 67.166c-1.28613 1.27148 -2.58691 2.48926 -3.90723 3.61328c-7.72168 6.57812 -14.8838 9.56738 -23.2539 9.56738c-1.4043 0 -2.83789 -0.0878906 -4.31543 -0.25c-5.04199 -1.1582 -31.5508 -19.248 -54.4268 -80.4492
c-25.1299 -67.2246 -34.29 -156.815 -25.8027 -252.258c1.36914 -15.375 3.86816 -30.6475 7.23535 -45.4043zM263.504 163.86c24.123 57.1562 35.5947 137.802 31.4805 221.275c-1.8457 37.5449 -8.91504 80.6562 -20.3086 118.524l-0.175781 -0.618164
c-33.0137 -117.646 -66.8223 -238.021 -107.989 -371.856c11.2266 -14.6973 23.583 -24.8301 35.3301 -28.6055c7.28027 -2.33203 16.3125 -3.30859 28.001 7.27539c5.92969 5.36523 15.2129 16.1309 25.7529 36.9014c0 0 0.00488281 0.00488281 0.00488281 0.00976562
c2.71484 5.33594 5.37109 11.0898 7.9043 17.0938z" />
    <glyph glyph-name="ugrave" unicode="&#xf9;" horiz-adv-x="422" 
d="M173.521 849.958l-37.8145 -35.0361l-70.0674 75.6191l37.8096 35.0361c31.4521 29.1455 63.0322 59.5127 93.8613 90.2529l36.499 36.4004l72.8018 -72.998l-36.5039 -36.3955c-31.7129 -31.6289 -64.2109 -62.8799 -96.5859 -92.8789zM393.512 699.971
l-0.717773 -81.3447c-0.481445 -62.9395 -1.10449 -139.757 -5.14941 -216.873c-0.132812 -115.466 1.02539 -230.353 3.50488 -350.335l1.06543 -51.5352l-103.071 -2.13086l-0.65332 31.4971c-20.5596 -18.6494 -46.1016 -30.4414 -77.9023 -30.4414
c-36.9902 0 -70.8281 14.5703 -97.8721 42.1299c-92.2656 94.0381 -95.7021 327.366 -91.6816 538.691c0.500977 26.3662 0.932617 49.1445 0.569336 62.625l-1.39453 51.5254l103.051 2.78809l1.39453 -51.5254c0.431641 -15.8613 -0.00488281 -38.6006 -0.549805 -67.3828
c-2.04688 -107.621 -7.48633 -393.506 62.1934 -464.53c9.71484 -9.90137 17.7314 -11.2363 24.2852 -11.2363c10.5107 0 41.9775 29.0859 61.0596 161.891c6.31348 43.9365 10.3096 92.1094 12.9062 140.611c0.0986328 80.1455 0.810547 160.586 2.15039 243.206
l0.839844 51.54l2.87207 -0.0488281l0.0146484 1.84082z" />
    <glyph glyph-name="OE" unicode="&#x152;" horiz-adv-x="738" 
d="M607.67 156.258l6.58691 51.126l102.246 -13.1855l-6.59277 -51.123c-15.248 -118.195 -86.125 -162.765 -147.375 -165.062c-1.85547 -0.0683594 -3.73047 -0.107422 -5.625 -0.107422c-60.4062 0 -137.062 37.0537 -171.528 206.51
c-1.37988 6.78906 -2.61719 13.7158 -3.77539 20.7061c-6.46484 -29.5088 -14.8545 -56.9902 -25.1289 -81.334c-3.44629 -8.18359 -7.1377 -16.1514 -10.9521 -23.6768c-14.1826 -27.9473 -30.5049 -50.3867 -48.5117 -66.6797
c-25.7139 -23.2734 -56.6455 -35.3936 -88.5498 -35.3936c-13.3135 0 -26.7891 2.11133 -40.1367 6.39648c-41.2803 13.25 -77.4941 45.3359 -104.72 92.7822c-25.7383 44.8447 -42.8066 102.139 -48.0693 161.332c-23.1367 260.053 71.0098 433.103 171.503 444.295
c38.5898 4.27539 75.1973 -7.21191 105.82 -33.2842c55.2471 -47.0488 81.0439 -132.894 93.0176 -197.423c0.638672 3.45117 1.24219 6.91699 1.91992 10.3535c14.6729 74.0928 65.3447 203.634 162.19 219.171c51.5547 8.28613 100.415 -13.3232 134.018 -59.2822
c49.8369 -68.1523 55.7471 -173.02 14.3828 -255.001c-24.1328 -47.8291 -83.4297 -124.764 -218.62 -140.998c1.71777 -14.2412 3.93164 -28.0898 6.6416 -41.418c7.61914 -37.4512 29.7246 -123.954 71.1475 -123.954c0.37793 0 0.746094 0.00488281 1.12402 0.0195312
c24.7217 0.927734 43.0322 29.0518 48.9873 75.2314zM261.501 163.846c24.1279 57.1709 35.6006 137.818 31.4971 221.292c-3.70605 75.3447 -28.4326 173.118 -66.959 205.926c-7.72656 6.57812 -14.8887 9.56738 -23.2588 9.56738
c-1.4043 0 -2.83789 -0.0878906 -4.31543 -0.25c-5.03711 -1.1582 -31.5508 -19.248 -54.4268 -80.4492c-25.1299 -67.2295 -34.29 -156.815 -25.8027 -252.258c3.91211 -44 16.5967 -87.4307 34.7998 -119.148c13.8193 -24.084 30.8828 -40.8291 46.8174 -45.9443
c7.28516 -2.33203 16.3027 -3.30859 27.9961 7.27539c5.92969 5.37012 15.2129 16.1309 25.748 36.8965c0.00488281 0.00488281 0.00488281 0.00976562 0.00976562 0.0146484c2.71973 5.36035 5.38086 11.1084 7.89453 17.0781zM488.929 462.461
c-7.2998 -36.8867 -11.6689 -75.0234 -13.083 -112.573c62.6689 9.45996 107.347 38.0107 130.513 83.9199c27.167 53.8525 17.4131 116.306 -5.56152 147.724c-11.8164 16.1611 -22.8125 18.7969 -29.4844 18.7969c-2.15039 0 -3.85352 -0.275391 -4.9873 -0.457031
c-29.1895 -4.68359 -65.5752 -77.7109 -77.3965 -137.41z" />
    <glyph glyph-name="oe" unicode="&#x153;" horiz-adv-x="740" 
d="M608.67 156.258l6.58691 51.126l102.246 -13.1855l-6.59277 -51.123c-15.248 -118.195 -86.125 -162.765 -147.375 -165.062c-1.85547 -0.0683594 -3.73047 -0.107422 -5.625 -0.107422c-60.4062 0 -137.062 37.0537 -171.528 206.51
c-1.37988 6.78906 -2.61719 13.7158 -3.77539 20.7061c-6.46484 -29.5088 -14.8545 -56.9902 -25.1289 -81.334c-3.44629 -8.18359 -7.1377 -16.1514 -10.9521 -23.6768c-14.1826 -27.9473 -30.5049 -50.3867 -48.5117 -66.6797
c-25.7139 -23.2734 -56.6455 -35.3936 -88.5498 -35.3936c-13.3135 0 -26.7891 2.11133 -40.1367 6.39648c-41.2803 13.25 -77.4941 45.3359 -104.72 92.7822c-25.7383 44.8447 -42.8066 102.139 -48.0693 161.332c-23.1367 260.053 71.0098 433.103 171.503 444.295
c38.5898 4.27539 75.1973 -7.21191 105.82 -33.2842c55.2471 -47.0488 81.0439 -132.894 93.0176 -197.423c0.638672 3.45117 1.24219 6.91699 1.91992 10.3535c14.6729 74.0928 65.3447 203.634 162.19 219.171c51.5547 8.28613 100.415 -13.3232 134.018 -59.2822
c49.8369 -68.1523 55.7471 -173.02 14.3828 -255.001c-24.1328 -47.8291 -83.4297 -124.764 -218.62 -140.998c1.71777 -14.2412 3.93164 -28.0898 6.6416 -41.418c7.61914 -37.4512 29.7246 -123.954 71.1475 -123.954c0.37793 0 0.746094 0.00488281 1.12402 0.0195312
c24.7217 0.927734 43.0322 29.0518 48.9873 75.2314zM262.501 163.846c24.1279 57.1709 35.6006 137.818 31.4971 221.292c-3.70605 75.3447 -28.4326 173.118 -66.959 205.926c-7.72656 6.57812 -14.8887 9.56738 -23.2588 9.56738
c-1.4043 0 -2.83789 -0.0878906 -4.31543 -0.25c-5.03711 -1.1582 -31.5508 -19.248 -54.4268 -80.4492c-25.1299 -67.2295 -34.29 -156.815 -25.8027 -252.258c3.91211 -44 16.5967 -87.4307 34.7998 -119.148c13.8193 -24.084 30.8828 -40.8291 46.8174 -45.9443
c7.28516 -2.33203 16.3027 -3.30859 27.9961 7.27539c5.92969 5.37012 15.2129 16.1309 25.748 36.8965c0.00488281 0.00488281 0.00488281 0.00976562 0.00976562 0.0146484c2.71973 5.36035 5.38086 11.1084 7.89453 17.0781zM489.929 462.461
c-7.2998 -36.8867 -11.6689 -75.0234 -13.083 -112.573c62.6689 9.45996 107.347 38.0107 130.513 83.9199c27.167 53.8525 17.4131 116.306 -5.56152 147.724c-11.8164 16.1611 -22.8125 18.7969 -29.4844 18.7969c-2.15039 0 -3.85352 -0.275391 -4.9873 -0.457031
c-29.1895 -4.68359 -65.5752 -77.7109 -77.3965 -137.41z" />
    <glyph glyph-name="perthousand" unicode="&#x2030;" horiz-adv-x="983" 
d="M513.006 685.527l-15.1836 -49.2637c-24.6387 -79.9492 -44.9971 -152.48 -66.5479 -229.273c-32.6064 -116.173 -66.3223 -236.298 -116.287 -385.264l-16.3916 -48.8701l-97.7393 32.7881l16.3916 48.8652c49.1494 146.521 82.5068 265.39 114.77 380.341
c20.7803 74.0332 42.2627 150.585 67.2891 231.786l15.1787 49.2578zM263.62 340.242c-8.26172 -17.1084 -18.0518 -31.1123 -29.0918 -41.6133c-17.5791 -16.7207 -39.5615 -25.5322 -62.0889 -25.5322c-9.44043 0 -18.9736 1.54102 -28.3203 4.69727
c-26.6318 8.99316 -49.4199 29.6992 -65.8994 59.8799c-14.1875 25.9834 -23.5732 58.8691 -26.4307 92.5996c-11.6152 137.268 34.4121 247.196 107.062 255.704c25.9541 3.00391 50.4795 -4.5459 70.9551 -21.9189c52.8066 -44.8145 59.998 -143.517 60.9014 -162.849
c2.5625 -54.7656 -4.90918 -107.057 -21.0449 -147.247c-1.91895 -4.78125 -3.95117 -9.38574 -6.04199 -13.7207c0.00488281 0.00488281 0 0.00488281 0 0zM173.999 392.389c10.4268 25.9736 15.5615 64.8594 13.7354 103.999
c-1.47754 31.4473 -9.00293 59.9053 -16.3467 76.1152c-10.5596 -21.9482 -22.5332 -66.6992 -16.8779 -133.531c1.64941 -19.4844 6.82324 -38.3994 14.1914 -51.8945c0.564453 -1.03125 1.11914 -1.98828 1.65918 -2.87207
c0.137695 0.285156 0.280273 0.570312 0.422852 0.870117c1.08496 2.24316 2.16504 4.70215 3.21582 7.31348zM611.893 397.48c52.8018 -44.8145 59.998 -143.516 60.8965 -162.843c2.56738 -54.7656 -4.9043 -107.057 -21.04 -147.247
c-1.92969 -4.80078 -3.9668 -9.41504 -6.05762 -13.7451c-8.25195 -17.0938 -18.0361 -31.0801 -29.0713 -41.5859c-17.584 -16.7256 -39.5664 -25.5371 -62.0986 -25.5371c-9.43555 0 -18.9688 1.54102 -28.3154 4.69727
c-26.6318 8.98828 -49.4199 29.6943 -65.8994 59.8701c-14.1924 26.0029 -23.5732 58.8887 -26.4307 92.6094c-11.6201 137.268 34.4072 247.196 107.062 255.704c25.959 3.01953 50.4844 -4.54492 70.9551 -21.9229zM556.091 125.809
c10.4219 25.9688 15.5566 64.8594 13.7305 103.999c-1.47266 31.4473 -8.99805 59.9053 -16.3418 76.1152c-10.5596 -21.9482 -22.5332 -66.6943 -16.8779 -133.526c1.6543 -19.4844 6.82812 -38.4043 14.1963 -51.9092c0.55957 -1.02637 1.11426 -1.97852 1.6543 -2.8623
c0.142578 0.285156 0.285156 0.575195 0.427734 0.870117c0 0.00976562 0.00488281 0.0195312 0.00976562 0.0292969c1.07031 2.22363 2.15039 4.67285 3.20117 7.28418zM932.975 234.634c2.5625 -54.7656 -4.90918 -107.056 -21.0449 -147.241
c-1.92969 -4.80078 -3.9668 -9.41504 -6.05762 -13.7451c-8.25195 -17.0938 -18.0361 -31.0801 -29.0713 -41.5859c-17.584 -16.7256 -39.5664 -25.5371 -62.0986 -25.5371c-9.43555 0 -18.9688 1.54102 -28.3154 4.69727
c-26.6318 8.98828 -49.4199 29.6943 -65.8994 59.8701c-14.1924 26.0029 -23.5732 58.8887 -26.4307 92.6094c-11.6201 137.268 34.4072 247.196 107.062 255.704c25.9639 3.01953 50.4795 -4.54492 70.9551 -21.9229c52.8066 -44.8145 59.998 -143.517 60.9014 -162.849z
M816.271 125.811c10.4219 25.9688 15.5566 64.8594 13.7305 103.999c-1.47266 31.4473 -8.99805 59.9053 -16.3418 76.1152c-10.5596 -21.9482 -22.5332 -66.6943 -16.8779 -133.526c1.6543 -19.4844 6.82812 -38.4043 14.1963 -51.9092
c0.55957 -1.02637 1.11426 -1.97852 1.6543 -2.8623c0.142578 0.285156 0.285156 0.575195 0.427734 0.870117c0 0.00976562 0.00488281 0.0195312 0.00976562 0.0292969c1.07031 2.22363 2.15039 4.67285 3.20117 7.28418z" />
    <glyph glyph-name="Euro" unicode="&#x20ac;" horiz-adv-x="516" 
d="M368.48 222.739l97.6719 -32.9619l-16.4795 -48.8398c-28.9043 -85.6631 -84.4746 -137.062 -145.445 -137.062c-7.20605 0 -14.4863 0.711914 -21.8105 2.17969c-65.0996 13.0137 -120.071 87.7539 -143.468 195.042c-7.22656 33.126 -11.4385 69.0215 -12.7393 106.065
c-13.6523 -0.80957 -27.4072 -1.81641 -41.4033 -3.12207l-29.3271 -2.74414l-5.47852 58.6533l29.3271 2.73926c15.9941 1.49219 31.7031 2.64062 47.2842 3.51953c0.166992 3.50488 0.333984 7.00488 0.549805 10.5146
c-13.9609 -0.825195 -28.0303 -1.85156 -42.3496 -3.18652l-29.3271 -2.74414l-5.47852 58.6533l29.3271 2.73926c18.2764 1.70801 36.1943 2.98926 53.9502 3.89746c2.21875 15.4141 4.875 30.7354 8.08105 45.8262c13.2148 62.2666 32.5078 111.878 57.3477 147.439
c37.6621 53.9258 91.333 75.4131 140.061 56.0713c25.7578 -10.2256 47.5732 -30.9121 63.0811 -59.8262c16.5293 -30.8193 26.7891 -72.124 31.3594 -126.281l4.33496 -51.3633l-102.728 -8.66895l-4.33496 51.3633c-4.34473 51.5254 -14.0693 76.1299 -19.4795 86.2178
c-3.90234 7.28027 -7.39258 10.6182 -9.13574 11.9678c-3.22559 -1.53613 -10.29 -6.55762 -18.6406 -18.5156c-16.4111 -23.4951 -30.9814 -62.4932 -41.0254 -109.812c-1.66895 -7.84961 -3.13184 -15.7773 -4.49121 -23.7305
c14.9678 -0.55957 30.0283 -1.35938 45.335 -2.4834l29.376 -2.15527l-4.32031 -58.752l-29.376 2.16016c-16.2832 1.19824 -32.2969 2.05273 -48.1973 2.57812c-0.259766 -3.51953 -0.524414 -7.03906 -0.730469 -10.5537
c17.5547 -0.540039 35.2422 -1.44824 53.2441 -2.76855l29.376 -2.15527l-4.31543 -58.752l-29.376 2.15039c-16.7354 1.23242 -33.1953 2.10156 -49.5322 2.62207c1.17773 -29.9941 4.66309 -58.9277 10.4805 -85.5986c16.6465 -76.3506 49.2227 -113.174 62.958 -115.923
c7.12793 -1.45801 32.3457 16.3271 49.3652 66.7578z" />
    </font>
</defs>
</svg>
